Интеллигентный торрент-трекер
canvas not supported
Нас вместе: 4 303 247

Шпана 3 / Brotherhood (2016) BDRemux [H.264/1080p] [EN / EN Sub]


 
 
RSS
Начать новую тему   Ответить на тему    Торрент-трекер NNM-Club -> Зарубежное кино -> Фильмы в оригинале (HD)
Автор Сообщение
smaster67 ®
Модератор Видео
Покровитель талантов Uploader 300+
Стаж: 7 лет 8 мес.
Сообщений: 6586
Ratio: 192,398
Поблагодарили: 189819
100%
Шпана 3 / Brotherhood (2016) BDRemux [H.264/1080p] [EN / EN Sub]

Производство: Великобритания
Жанр: драма

Режиссер: Ноэль Кларк
Актеры: Эшли Томас, Ноэль Кларк, Оливия Ченери, Стивен Кри, Ник Неверн, Дэвид Аджала, Тония Сотиропулу, Джейсон Мацца, Арнольд Ошенг, Фейди Эльсайед, Лашана Линч

Описание:
Криминальная драма Шпана 3 является очередной частью кинопроекта, рассказывающего о непростой жизни подрастающего поколения на небольших британских улочках и трущобах. Героям этого фильма не довелось родиться в огромных особняках, у богатых родителей, так что все премудрости выживания в этом несправедливом мире им пришлось осваивать самостоятельно, отстаивая свои права с самых малых лет.
Вполне возможно, что при других обстоятельствах, герои фильма Brotherhood (2016) смогли бы найти своим силам более достойное применение, но их реальность такова, что без жестокости и проявления силы выжить практически невозможно. Например, Сэм, недавно вышедший из тюрьмы, твердо решил встать на путь исправления, но вырваться из своего привычного окружения оказывается не так-то просто.
Масса соблазнов, в виде наркотических препаратов, старых дружков и девушек легкого поведения, вновь затягивают парня в пучину прежней жизни. Его ситуация серьезно усугубляется еще и тем, что члены другой группировки постоянно угрожают ему расправой за убийство своего лидера.



Продолжительность: 01:44:30
Качество видео: BDRemux
Перевод: Отсутствует
Язык озвучки: Английский
Язык субтитров: английский
Вид субтитров: Вшитые

Видео: AVC, 1920x1080 (16:9), 27797 kbps, 24 fps, 0,559 bpp
Аудио: английский / DTS-HD / 5.1 / 48 kHz / 3072 kbps / 24 bit (Core: 5.1 / 48 kHz / 768 kbps / 24 bit)
Код: выделить все
General
Unique ID                               Brotherhood.2016.REMUX.1080p.BluRay.AVC.DTS-HD.MA.5.1-iFT.mkv
Format                                   : Matroska
Format version                           : Version 4 / Version 2
File size                                : 22.5 GiB
Duration                                 : 1 h 44 min
Overall bit rate mode                    : Variable
Overall bit rate                         : 30.9 Mb/s
Encoded date                             : UTC 2016-12-31 16:15:51
Writing application                      : mkvmerge v8.9.0 ('Father Daughter') 64bit
Writing library                          : libebml v1.3.3 + libmatroska v1.4.4

Video
ID                                       : 1
Format                                   : AVC
Format/Info                              : Advanced Video Codec
Format profile                           : High@L4.1
Format settings, CABAC                   : Yes
Format settings, ReFrames                : 3 frames
Codec ID                                 : V_MPEG4/ISO/AVC
Duration                                 : 1 h 44 min
Bit rate mode                            : Variable
Bit rate                                 : 27.8 Mb/s
Maximum bit rate                         : 34.0 Mb/s
Width                                    : 1 920 pixels
Height                                   : 1 080 pixels
Display aspect ratio                     : 16:9
Frame rate mode                          : Constant
Frame rate                               : 24.000 FPS
Standard                                 : NTSC
Color space                              : YUV
Chroma subsampling                       : 4:2:0
Bit depth                                : 8 bits
Scan type                                : Progressive
Bits/(Pixel*Frame)                       : 0.559
Stream size                              : 20.3 GiB (90%)
Title                                    : Brotherhood.2016.REMUX.1080p.BluRay.AVC.DTS-HD.MA.5.1-iFT
Language                                 : English
Default                                  : Yes
Forced                                   : No
Color range                              : Limited
Color primaries                          : BT.709
Transfer characteristics                 : BT.709
Matrix coefficients                      : BT.709

Audio
ID                                       : 2
Format                                   : DTS
Format/Info                              : Digital Theater Systems
Format profile                           : MA / Core
Mode                                     : 16
Format settings, Endianness              : Big
Codec ID                                 : A_DTS
Duration                                 : 1 h 44 min
Bit rate mode                            : Variable / Constant
Bit rate                                 : 3 072 kb/s / 768 kb/s
Channel(s)                               : 6 channels
Channel positions                        : Front: L C R, Side: L R, LFE
Sampling rate                            : 48.0 kHz
Frame rate                               : 93.750 FPS (512 spf)
Bit depth                                : 24 bits
Compression mode                         : Lossless / Lossy
Stream size                              : 2.23 GiB (10%)
Title                                    : English
Language                                 : English
Default                                  : Yes
Forced                                   : No

Text
ID                                       : 3
Format                                   : PGS
Muxing mode                              : zlib
Codec ID                                 : S_HDMV/PGS
Codec ID/Info                            : Picture based subtitle format used on BDs/HD-DVDs
Duration                                 : 1 h 39 min
Bit rate                                 : 13.1 kb/s
Count of elements                        : 2936
Stream size                              : 9.27 MiB (0%)
Title                                    : English-PGS
Language                                 : English
Default                                  : Yes
Forced                                   : No

Menu
00:00:00.000                             : en:Chapter 01
00:09:15.541                             : en:Chapter 02
00:15:58.458                             : en:Chapter 03
00:25:21.625                             : en:Chapter 04
00:38:42.125                             : en:Chapter 05
00:48:24.500                             : en:Chapter 06
00:57:03.875                             : en:Chapter 07
01:07:05.583                             : en:Chapter 08
01:16:06.250                             : en:Chapter 09
01:21:37.791                             : en:Chapter 10
01:27:50.125                             : en:Chapter 11
01:35:58.916                             : en:Chapter 12

Скриншоты:



Все одноименные релизы в Клубе

Время раздачи: с 13:00 до 23:00
[NNMClub.to]_Brotherhood.2016.REMUX.1080p.BluRay.AVC.DTS-HD.MA.5.1-iFT.mkv.torrent
 Торрент: Золотая раздача  Зарегистрирован
 
Примагнититься
Free Leech
Зарегистрируйтесь и скачайте торрент!
113 KB
 Зарегистрирован:   31 Дек 2016 21:00:53
 Размер:   22,5 GB  (
 Рейтинг:    (Голосов: 5)
 Поблагодарили:   28
 Проверка:   Оформление проверено модератором 31 Дек 2016 21:01:33
Как cкачать  ·  Как раздать  ·  Правильно оформить  ·  Поднять ратио!  
ukinari
Стаж: 5 лет 1 мес.
Сообщений: 110
Ratio: 8,085
0.22%
Я уже смотрел, получше про Али Джи :) вот там шпана - реальная. А тут вранье, откуда негры в Британии.
zadira2009
Стаж: 7 лет 3 мес.
Сообщений: 68
Ratio: 1,733
100%
russia.gif
Британская шпана,все черномазые, куда катится мир.
pasha​-smit​h​
Стаж: 4 года 11 мес.
Сообщений: 8
Ratio: 0,808
15.03%
ukinari писал(а): Перейти к сообщению
Я уже смотрел, получше про Али Джи :) вот там шпана - реальная. А тут вранье, откуда негры в Британии.


В том то и дело что в том же Лондоне этих черных сейчас как в любом американском городе. Вот к примеру восточный Лондон, стал колыбелью такого стиля в музыке как грайм и рожден он был именно в среде жестокости и криминала тех же самых черных в Британии. А сами афро-британцы туда нахлынули с Ямайки когда им открыли двери в Королевстве.
IKNOW​ICANF​LY​
Стаж: 1 год 3 мес.
Сообщений: 1
Ratio: 10,946
25%
ukinari писал(а): Перейти к сообщению
Я уже смотрел, получше про Али Джи :) вот там шпана - реальная. А тут вранье, откуда негры в Британии.


Тебе то из своего маленького нонейм рашен места виднее то))) :D
Показать сообщения:   
Начать новую тему   Ответить на тему    Торрент-трекер NNM-Club -> Зарубежное кино -> Фильмы в оригинале (HD) Часовой пояс: GMT + 3
Страница 1 из 1