Интеллигентный торрент-трекер
canvas not supported
Нас вместе: 4 309 635

Михаил Задорнов. Умом Россию никогда (2017.01.01) SATRip


 
 
RSS
Начать новую тему   Ответить на тему    Торрент-трекер NNM-Club -> Юмор -> Сатирики
Автор Сообщение
svlesin ®
Модератор Документалистики/TV
RG Releasers
Релизер 22222+ Uploader 100+
 
Стаж: 7 лет 3 мес.
Сообщений: 30768
Ratio: 1148,249
Поблагодарили: 2920144
100%
russia.gif
Михаил Задорнов. Умом Россию никогда (2017.01.01) SATRip
Телекомпания: РЕН
Жанр: Юмористический концерт, сатира

Режиссер: Михаил Задорнов

Описание:
В новой программе Михаила Задорнова говорится о своеобразии русского национального характера и о нелепостях его проявления.

Релиз от: Хотт@быч
Продолжительность: ~ 01:31:08
Качество видео: SATRip
Субтитры: Отсутствуют

Видео: MPEG4, XviD, 720x400 (16:9), 25.000 fps, 1 598 Kbps (0.222 bit/pixel)
Аудио: MP3, 48.0 KHz, 2 ch, 128 Kbps, CBR
Код: выделить все
 Общее
Полное имя                               : D:\[1]\Задорнов\Михаил Задорнов. Умом Россию никогда (2017.01.01).avi
Формат                                   : AVI
Формат/Информация                        : Audio Video Interleave
Размер файла                             : 1,11 Гбайт
Продолжительность                        : 1 ч. 31 м.
Общий поток                              : 1736 Кбит/сек
Программа кодирования                    : VirtualDubMod 1.5.10.3 | www.virtualdub-fr.org || (build 2550/release)
Библиотека кодирования                   : VirtualDub build 29808/release

Видео
Идентификатор                            : 0
Формат                                   : MPEG-4 Visual
Профиль формата                          : Advanced Simple@L5
Параметр BVOP формата                    : 2
Параметр QPel формата                    : Нет
Параметр GMC формата                     : Без точки перехода
Параметр матрицы формата                 : Default (H.263)
Идентификатор кодека                     : XVID
Идентификатор кодека/Подсказка           : XviD
Продолжительность                        : 1 ч. 31 м.
Битрейт                                  : 1598 Кбит/сек
Ширина                                   : 720 пикселей
Высота                                   : 400 пикселей
Соотношение сторон                       : 16:9
Частота кадров                           : 25,000 кадров/сек
Цветовое пространство                    : YUV
Субдискретизация насыщенности            : 4:2:0
Битовая глубина                          : 8 бит
Тип развёртки                            : Прогрессивная
Метод сжатия                             : С потерями
Бит/(Пиксели*Кадры)                      : 0.222
Размер потока                            : 1,02 Гбайт (92%)
Библиотека кодирования                   : XviD 1.2.1 (UTC 2008-12-04)

Аудио
Идентификатор                            : 1
Формат                                   : MPEG Audio
Версия формата                           : Version 1
Профиль формата                          : Layer 3
Режим                                    : Joint stereo
Расширение режима                        : MS Stereo
Идентификатор кодека                     : 55
Идентификатор кодека/Подсказка           : MP3
Продолжительность                        : 1 ч. 31 м.
Вид битрейта                             : Постоянный
Битрейт                                  : 128 Кбит/сек
Каналы                                   : 2 канала
Частота                                  : 48,0 КГц
Метод сжатия                             : С потерями
Размер потока                            : 83,4 Мбайт (7%)
Выравнивание                             : Соединение по промежуткам
Продолжительность промежутка             : 40  мс. (1,00 видеокадр)
Время предзагрузки промежутка            : 504  мс.
Библиотека кодирования                   : LAME3.99r
Настройки программы                      : -m j -V 4 -q 2 -lowpass 17 -b 128
 
Скриншоты:



Все одноименные релизы в Клубе
Время раздачи: 24/7. До первых 5 скачавших.
[NNMClub.to]_Mihail Zadornov. Umom Rossiyu nikogda (2017.01.01).avi.torrent
 Торрент:   Зарегистрирован
 
Примагнититься
Free Leech
Зарегистрируйтесь и скачайте торрент!
11,4 KB
 Зарегистрирован:   01 Янв 2017 18:40:12
 Размер:   1,11 GB  (
 Рейтинг:   3,8 (Голосов: 83)
 Поблагодарили:   276
 Проверка:   Оформление проверено модератором 01 Янв 2017 18:44:10
Как cкачать  ·  Как раздать  ·  Правильно оформить  ·  Поднять ратио!  
dnk77242
Стаж: 6 лет
Сообщений: 917
Ratio: 9,425
100%
Откуда: Tmb
nnm-club.gif
нарезка?

_________________
alexg​reent​ea​
 
Стаж: 8 лет 8 мес.
Сообщений: 125
Ratio: 9,265
100%
Откуда: Санкт​-Пете​рбург​
russia.gif
По скринам же видно...
Demis
Стаж: 9 лет 11 мес.
Сообщений: 211
Ratio: 8,982
100%
Откуда: S-t Peterburg
russia.gif
Не по теме раздачи - грандреспект хлопцам, наконец-то воссоединившим две неразлучные для России темы - спорт и юмор!

_________________
Скупой платит дважды , русский юзер - никогда !
LiLOF
Стаж: 4 года
Сообщений: 600
Ratio: 0,974
Поблагодарили: 9
0.07%
Не понять Задорного.. Столько лет шутить про тупых иностранцев, про импортозамещение, и великих русских людей, а как заболел - поехал лечиться в Европу. Дошутился.
 !  Примечание от NorthOn:
Флейм, флуд, троллинг.
Mr_Romizz

Online
Стаж: 5 лет 10 мес.
Сообщений: 1342
Ratio: 2,716
15.39%
Откуда: Санкт​-Пете​рбург​
russia.gif
Demis писал(а): Перейти к сообщению
Не по теме раздачи - грандреспект хлопцам, наконец-то воссоединившим две неразлучные для России темы - спорт и юмор!


уловил сарказм. согласен - кто такое придумал, какой чёртов гений? )))
budda22
Стаж: 6 лет
Сообщений: 36
Ratio: 1,68
0.83%
germany.gif
Старые концерты.Рен-тв винегрет из старья мешает.
Borax
 
Стаж: 5 лет 2 мес.
Сообщений: 133
Ratio: 540,032
100%
LiLOF писал(а): Перейти к сообщению
Не понять Задорного.. Столько лет шутить про тупых иностранцев, про импортозамещение, и великих русских людей, а как заболел - поехал лечиться в Европу. Дошутился.


А зачем злопыхать?
Во-первых, он не Задорный, а Задорнов. :)
Во-вторых, в Латвии Задорнов родился и вырос, там его дом, родители похоронены, вся Латвия его знает. Но рак в Латвии не лечат. Берлинская клиника Шарите - последний шанс при тяжёлых формах рака.
Задорнов - это сатира и юмор, его монологи - шоу, а не его гражданско-патриотическая позиция, он никому ничего не должен.
Патриот России, каких ещё поискать, за что латвийские националисты дважды пытались его лишить латвийского вида на жительство.
Здоровья ему.
cartteller
Стаж: 5 лет 11 мес.
Сообщений: 2
Ratio: 44,286
100%
Задорнову - респект и здоровья!
serjant7
Стаж: 6 лет 5 мес.
Сообщений: 24
Ratio: 14,752
20.95%
russia.gif
А к кому, интересно обратиться, чтобы разделили этот раздел на два соответствующих раздела?
Вообще не удобно...
dnk77242
Стаж: 6 лет
Сообщений: 917
Ratio: 9,425
100%
Откуда: Tmb
nnm-club.gif
serjant7

Точно, а лучше вернуть как было.

_________________
serjant7
Стаж: 6 лет 5 мес.
Сообщений: 24
Ratio: 14,752
20.95%
russia.gif
dnk77242
Кстати - да, приходится сейчас "шерстить" 7-8 разделов вместо 3-х, хотя есть небольшой выход - основные постоянно скачиваемые раздачи разместить как поиск в закладках (Mozilla самый удобный браузер для этого) ...
Показать сообщения:   
Начать новую тему   Ответить на тему    Торрент-трекер NNM-Club -> Юмор -> Сатирики Часовой пояс: GMT + 3
Страница 1 из 1