Интеллигентный торрент-трекер
canvas not supported
Нас вместе: 4 347 968

Глубоководный горизонт / Deepwater Horizon (2016) BDRemux [H.264/1080p] [EN / EN, Sp Sub]


 
 
RSS
Начать новую тему   Ответить на тему    Торрент-трекер NNM-Club -> Зарубежное кино -> Фильмы в оригинале (HD)
Автор Сообщение
smaster67 ®
Модератор Видео
Покровитель талантов Uploader 300+
Стаж: 7 лет 10 мес.
Сообщений: 6628
Ratio: 198,278
Поблагодарили: 192257
100%
Глубоководный горизонт / Deepwater Horizon (2016) BDRemux [H.264/1080p] [EN / EN, Sp Sub]

Производство: Гонконг, США
Жанр: боевик, триллер, драма

Режиссер: Питер Берг
Актеры: Марк Уолберг, Курт Рассел, Джон Малкович, Джина Родригез, Дилан О’Брайен, Кейт Хадсон, Итан Сапли, Генри Фрост, Джереми Сэнд, Дуглас М. Гриффин, Джеймс ДюМонт, Джо Крест

Описание:
Отправляясь на очередную вахту и прощаясь с семьями, они не подозревали, что могут не вернуться... Это основанная на реальных событиях история о страшной аварии на нефтяной платформе «Глубоководный горизонт», которая произошла в 2010 году в Мексиканском заливе. Хроника беспримерного мужества и отваги перед лицом одной из самых страшных техногенных катастроф в мировой истории.



Продолжительность: 01:47:17
Качество видео: BDRemux
Перевод: Отсутствует
Язык озвучки: Английский
Язык субтитров: английский, испанский
Вид субтитров: Вшитые

Видео: AVC, 1920x1080 (16:9), 24968 kbps, 23,976 fps, 0,502 bpp
Аудио №1: английский / Atmos / TrueHD / 7.1 / 5035 kbps /
Аудио №2: английский / AC3 / 5.1 / 48 kHz / 640 kbps /
Код: выделить все
General
Unique ID                                Deepwater.Horizon.2016.REMUX.1080p.BluRay.AVC.Atmos.TrueHD.7.1-iFT.mkv
Format                                   : Matroska
Format version                           : Version 4 / Version 2
File size                                : 23.1 GiB
Duration                                 : 1 h 47 min
Overall bit rate mode                    : Variable
Overall bit rate                         : 30.8 Mb/s
Encoded date                             : UTC 2017-01-01 07:06:57
Writing application                      : mkvmerge v8.9.0 ('Father Daughter') 64bit
Writing library                          : libebml v1.3.3 + libmatroska v1.4.4

Video
ID                                       : 1
Format                                   : AVC
Format/Info                              : Advanced Video Codec
Format profile                           : High@L4.1
Format settings, CABAC                   : Yes
Format settings, ReFrames                : 4 frames
Codec ID                                 : V_MPEG4/ISO/AVC
Duration                                 : 1 h 47 min
Bit rate mode                            : Variable
Bit rate                                 : 25.0 Mb/s
Maximum bit rate                         : 36.4 Mb/s
Width                                    : 1 920 pixels
Height                                   : 1 080 pixels
Display aspect ratio                     : 16:9
Frame rate mode                          : Constant
Frame rate                               : 23.976 (24000/1001) FPS
Color space                              : YUV
Chroma subsampling                       : 4:2:0
Bit depth                                : 8 bits
Scan type                                : Progressive
Bits/(Pixel*Frame)                       : 0.502
Stream size                              : 18.7 GiB (81%)
Title                                    : Deepwater.Horizon.2016.REMUX.1080p.BluRay.AVC.Atmos.TrueHD.7.1-iFT
Language                                 : English
Default                                  : Yes
Forced                                   : No

Audio #1
ID                                       : 2
Format                                   : Atmos / TrueHD
Codec ID                                 : A_TRUEHD
Duration                                 : 1 h 47 min
Bit rate mode                            : Variable
Bit rate                                 : 5 035 kb/s
Maximum bit rate                         : 6 759 kb/s
Channel(s)                               : Object Based / 8 channels
Channel positions                        : Object Based / Front: L C R, Side: L R, Back: L R, LFE
Sampling rate                            :  / 48.0 kHz
Frame rate                               : 1 200.000 FPS (40 spf)
Compression mode                         : Lossless
Stream size                              : 3.77 GiB (16%)
Title                                    : English
Language                                 : English
Default                                  : Yes
Forced                                   : No

Audio #2
ID                                       : 3
Format                                   : AC-3
Format/Info                              : Audio Coding 3
Mode extension                           : CM (complete main)
Format settings, Endianness              : Big
Codec ID                                 : A_AC3
Duration                                 : 1 h 47 min
Bit rate mode                            : Constant
Bit rate                                 : 640 kb/s
Channel(s)                               : 6 channels
Channel positions                        : Front: L C R, Side: L R, LFE
Sampling rate                            : 48.0 kHz
Frame rate                               : 31.250 FPS (1536 spf)
Compression mode                         : Lossy
Stream size                              : 491 MiB (2%)
Title                                    : English
Language                                 : English
Default                                  : No
Forced                                   : No

Text #1
ID                                       : 4
Format                                   : PGS
Muxing mode                              : zlib
Codec ID                                 : S_HDMV/PGS
Codec ID/Info                            : Picture based subtitle format used on BDs/HD-DVDs
Duration                                 : 1 h 36 min
Bit rate                                 : 18.5 kb/s
Count of elements                        : 2997
Stream size                              : 12.8 MiB (0%)
Title                                    : English-PGS
Language                                 : English
Default                                  : Yes
Forced                                   : No

Text #2
ID                                       : 5
Format                                   : PGS
Muxing mode                              : zlib
Codec ID                                 : S_HDMV/PGS
Codec ID/Info                            : Picture based subtitle format used on BDs/HD-DVDs
Duration                                 : 1 h 36 min
Bit rate                                 : 20.4 kb/s
Count of elements                        : 3319
Stream size                              : 14.1 MiB (0%)
Title                                    : English-PGS
Language                                 : English
Default                                  : No
Forced                                   : No

Text #3
ID                                       : 6
Format                                   : PGS
Muxing mode                              : zlib
Codec ID                                 : S_HDMV/PGS
Codec ID/Info                            : Picture based subtitle format used on BDs/HD-DVDs
Duration                                 : 1 h 38 min
Bit rate                                 : 19.1 kb/s
Count of elements                        : 3323
Stream size                              : 13.4 MiB (0%)
Title                                    : Spanish-PGS
Language                                 : Spanish
Default                                  : No
Forced                                   : No

Menu
00:00:00.000                             : en:Chapter 01
00:07:01.212                             : en:Chapter 03
00:12:32.626                             : en:Chapter 05
00:19:34.464                             : en:Chapter 07
00:27:17.218                             : en:Chapter 09
00:34:52.632                             : en:Chapter 11
00:44:29.833                             : en:Chapter 13
00:48:04.923                             : en:Chapter 15
00:53:47.599                             : en:Chapter 17
00:58:05.148                             : en:Chapter 19
01:05:44.607                             : en:Chapter 21
01:10:06.869                             : en:Chapter 23
01:16:02.933                             : en:Chapter 25
01:20:44.381                             : en:Chapter 27
01:27:37.668                             : en:Chapter 29
01:31:37.825                             : en:Chapter 31
01:47:17.222                             : en:Chapter 32

Скриншоты:



Все одноименные релизы в Клубе

Время раздачи: с 13:00 до 23:00
[NNMClub.to]_Deepwater.Horizon.2016.REMUX.1080p.BluRay.AVC.Atmos.TrueHD.7.1-iFT.mkv.torrent
 Торрент: Платиновая раздача  Зарегистрирован
 
Примагнититься

Скачать
 Зарегистрирован:   02 Янв 2017 16:18:26
 Размер:   23,1 GB  (
 Рейтинг:    (Голосов: 7)
 Поблагодарили:   47
 Проверка:   Оформление проверено модератором 02 Янв 2017 16:18:56
Как cкачать  ·  Как раздать  ·  Правильно оформить  ·  Поднять ратио!  
Показать сообщения:   
Начать новую тему   Ответить на тему    Торрент-трекер NNM-Club -> Зарубежное кино -> Фильмы в оригинале (HD) Часовой пояс: GMT + 3
Страница 1 из 1