Интеллигентный торрент-трекер
canvas not supported
Нас вместе: 4 190 930

Шелли / Shelley (2016) BDRemux [H.264/1080p] [EN / EN, Sp Sub]


 
 
RSS
Начать новую тему   Ответить на тему    Торрент-трекер NNM-Club -> Зарубежное кино -> Фильмы в оригинале (HD)
Автор Сообщение
smaster67 ®
Модератор Видео
Покровитель талантов Uploader 300+
Стаж: 7 лет 6 мес.
Сообщений: 6381
Ratio: 186,364
Поблагодарили: 179722
100%
Шелли / Shelley (2016) BDRemux [H.264/1080p] [EN / EN, Sp Sub]

Производство: Дания, Швеция
Жанр: ужасы, драма

Режиссер: Али Аббаси
Актеры: Эллен Доррит Петерсен, Козмина Стратан, Бьорн Андресен, Кеннет М. Кристенсен, Питер Кристофферсен, Марианн Мортенсен, Патриция Шуманн

Описание:
Каспер и Луиза мечтают стать родителями, но Луиза не может иметь детей. Она заключает договор со своей горничной из Румынии, что та выносит их ребёнка, но всё идёт совсем не по плану.



Продолжительность: 01:32:24
Качество видео: BDRemux
Перевод: Отсутствует
Язык озвучки: Английский
Язык субтитров: английский, испанский
Вид субтитров: Вшитые

Видео: AVC, 1920x1080 (16:9), 26468 kbps, 23,976 fps, 0,532 bpp
Аудио: английский / DTS-HD / 5.1 / 48 kHz / 2829 kbps / 24 bit (Core: 5.1 / 48 kHz / 1509 kbps / 24 bit)
Код: выделить все
General
Unique ID                                Shelley.2016.REMUX.1080p.BluRay.AVC.DTS-HD.MA.5.1-iFT.mkv
Format                                   : Matroska
Format version                           : Version 4 / Version 2
File size                                : 18.9 GiB
Duration                                 : 1 h 32 min
Overall bit rate mode                    : Variable
Overall bit rate                         : 29.3 Mb/s
Encoded date                             : UTC 2017-01-01 17:48:41
Writing application                      : mkvmerge v8.9.0 ('Father Daughter') 64bit
Writing library                          : libebml v1.3.3 + libmatroska v1.4.4

Video
ID                                       : 1
Format                                   : AVC
Format/Info                              : Advanced Video Codec
Format profile                           : High@L4.1
Format settings, CABAC                   : Yes
Format settings, ReFrames                : 4 frames
Codec ID                                 : V_MPEG4/ISO/AVC
Duration                                 : 1 h 32 min
Bit rate mode                            : Variable
Bit rate                                 : 26.5 Mb/s
Maximum bit rate                         : 32.0 Mb/s
Width                                    : 1 920 pixels
Height                                   : 1 080 pixels
Display aspect ratio                     : 16:9
Frame rate mode                          : Constant
Frame rate                               : 23.976 (24000/1001) FPS
Color space                              : YUV
Chroma subsampling                       : 4:2:0
Bit depth                                : 8 bits
Scan type                                : Progressive
Bits/(Pixel*Frame)                       : 0.532
Stream size                              : 17.1 GiB (90%)
Title                                    : Shelley.2016.REMUX.1080p.BluRay.AVC.DTS-HD.MA.5.1-iFT
Language                                 : English
Default                                  : Yes
Forced                                   : No

Audio
ID                                       : 2
Format                                   : DTS
Format/Info                              : Digital Theater Systems
Format profile                           : MA / Core
Mode                                     : 16
Format settings, Endianness              : Big
Codec ID                                 : A_DTS
Duration                                 : 1 h 32 min
Bit rate mode                            : Variable / Constant
Bit rate                                 : 2 829 kb/s / 1 509 kb/s
Channel(s)                               : 6 channels
Channel positions                        : Front: L C R, Side: L R, LFE
Sampling rate                            : 48.0 kHz
Frame rate                               : 93.750 FPS (512 spf)
Bit depth                                : 24 bits
Compression mode                         : Lossless / Lossy
Stream size                              : 1.83 GiB (10%)
Title                                    : English
Language                                 : English
Default                                  : Yes
Forced                                   : No

Text #1
ID                                       : 3
Format                                   : PGS
Muxing mode                              : zlib
Codec ID                                 : S_HDMV/PGS
Codec ID/Info                            : Picture based subtitle format used on BDs/HD-DVDs
Duration                                 : 1 h 26 min
Bit rate                                 : 17.7 kb/s
Count of elements                        : 1362
Stream size                              : 11.0 MiB (0%)
Title                                    : English-PGS
Language                                 : English
Default                                  : Yes
Forced                                   : No

Text #2
ID                                       : 4
Format                                   : PGS
Muxing mode                              : zlib
Codec ID                                 : S_HDMV/PGS
Codec ID/Info                            : Picture based subtitle format used on BDs/HD-DVDs
Duration                                 : 1 h 18 min
Bit rate                                 : 2 718 b/s
Count of elements                        : 326
Stream size                              : 1.53 MiB (0%)
Title                                    : English-Forced-PGS
Language                                 : English
Default                                  : No
Forced                                   : No

Text #3
ID                                       : 5
Format                                   : PGS
Muxing mode                              : zlib
Codec ID                                 : S_HDMV/PGS
Codec ID/Info                            : Picture based subtitle format used on BDs/HD-DVDs
Duration                                 : 1 h 24 min
Bit rate                                 : 17.1 kb/s
Count of elements                        : 1136
Stream size                              : 10.3 MiB (0%)
Title                                    : Spanish-PGS
Language                                 : Spanish
Default                                  : No
Forced                                   : No

Menu
00:00:00.000                             : en:Chapter 01
00:09:05.586                             : en:Chapter 02
00:18:18.347                             : en:Chapter 03
00:24:38.059                             : en:Chapter 04
00:32:48.675                             : en:Chapter 05
00:40:08.531                             : en:Chapter 06
00:49:09.738                             : en:Chapter 07
00:55:59.439                             : en:Chapter 08
01:04:48.676                             : en:Chapter 09
01:12:36.143                             : en:Chapter 10
01:20:35.288                             : en:Chapter 11
01:29:11.679                             : en:Chapter 12

Скриншоты:



Все одноименные релизы в Клубе

Время раздачи: с 13:00 до 23:00
[NNMClub.to]_Shelley.2016.REMUX.1080p.BluRay.AVC.DTS-HD.MA.5.1-iFT.mkv.torrent
 Торрент: Золотая раздача  Зарегистрирован
 
Примагнититься

Зарегистрируйтесь и скачайте торрент!
94,9 KB
 Зарегистрирован:   02 Янв 2017 18:07:25
 Размер:   18,9 GB  (
 Рейтинг:    (Голосов: 6)
 Поблагодарили:   22
 Проверка:   Оформление проверено модератором 02 Янв 2017 18:07:59
Как cкачать  ·  Как раздать  ·  Правильно оформить  ·  Поднять ратио!  
Показать сообщения:   
Начать новую тему   Ответить на тему    Торрент-трекер NNM-Club -> Зарубежное кино -> Фильмы в оригинале (HD) Часовой пояс: GMT + 3
Страница 1 из 1