Интеллигентный торрент-трекер
canvas not supported
Нас вместе: 4 301 632

Фантазм 5 / Phantasm: Ravager (2016) BDRip [H.264/720p] [EN / EN Sub]


 
 
RSS
Начать новую тему   Ответить на тему    Торрент-трекер NNM-Club -> Зарубежное кино -> Фильмы в оригинале (HD)
Автор Сообщение
smaster67 ®
Модератор Видео
Покровитель талантов Uploader 300+
Стаж: 7 лет 8 мес.
Сообщений: 6580
Ratio: 192,157
Поблагодарили: 189544
100%
Фантазм 5 / Phantasm: Ravager (2016) BDRip [H.264/720p] [EN / EN Sub]

Производство: США
Жанр: ужасы, фэнтези

Режиссер: Дэвид Хартман
Актеры: Рэджи Бэннистер, А. Майкл Болдуин, Кэти Лестер, Билл Торнбери, Энгус Скримм, Дэниэл Швайгер, Доун Коуди, Глория Линн Генри, Стивен Джутрас, Кин Окада, Джей Олива

Описание:
Реджи и Майк сомневаются, что все, что с ними происходило, было на самом деле, и все это просто игры разума. Но как это может происходить одновременно у всех в голове...



Продолжительность: 01:25:32
Качество видео: BDRip
Перевод: Отсутствует
Язык озвучки: Английский
Язык субтитров: английский
Вид субтитров: Вшитые

Видео: AVC, 1280x720 (16:9), 5805 kbps, 23,976 fps, 0,263 bpp
Аудио: английский / DTS / 5.1 / 48 kHz / 1509 kbps / 24 bit
Код: выделить все
General
Unique ID                                Phantasm.Ravager.2016.720p.mkv
Format                                   : Matroska
Format version                           : Version 4 / Version 2
File size                                : 4.37 GiB
Duration                                 : 1 h 25 min
Overall bit rate                         : 7 318 kb/s
Encoded date                             : UTC 2017-01-02 17:41:41
Writing application                      : mkvmerge v7.5.0 ('Glass Culture') 64bit built on Jan  4 2015 16:48:44
Writing library                          : libebml v1.3.1 + libmatroska v1.4.2

Video
ID                                       : 1
Format                                   : AVC
Format/Info                              : Advanced Video Codec
Format profile                           : High@L4.1
Format settings, CABAC                   : Yes
Format settings, ReFrames                : 5 frames
Codec ID                                 : V_MPEG4/ISO/AVC
Duration                                 : 1 h 25 min
Bit rate                                 : 5 805 kb/s
Width                                    : 1 280 pixels
Height                                   : 720 pixels
Display aspect ratio                     : 16:9
Frame rate mode                          : Constant
Frame rate                               : 23.976 (24000/1001) FPS
Color space                              : YUV
Chroma subsampling                       : 4:2:0
Bit depth                                : 8 bits
Scan type                                : Progressive
Bits/(Pixel*Frame)                       : 0.263
Stream size                              : 3.47 GiB (79%)
Writing library                          : x264 core 148 r2744 b97ae06
Encoding settings                        : cabac=1 / ref=5 / deblock=1:-3:-3 / analyse=0x3:0x113 / me=umh / subme=8 / psy=1 / psy_rd=1.00:0.00 / mixed_ref=1 / me_range=24 / chroma_me=1 / trellis=1 / 8x8dct=1 / cqm=0 / deadzone=21,11 / fast_pskip=1 / chroma_qp_offset=-2 / threads=22 / lookahead_threads=3 / sliced_threads=0 / nr=0 / decimate=1 / interlaced=0 / bluray_compat=0 / constrained_intra=0 / bframes=3 / b_pyramid=2 / b_adapt=2 / b_bias=0 / direct=3 / weightb=1 / open_gop=0 / weightp=2 / keyint=240 / keyint_min=24 / scenecut=40 / intra_refresh=0 / rc_lookahead=50 / rc=2pass / mbtree=1 / bitrate=5805 / ratetol=1.0 / qcomp=0.60 / qpmin=0 / qpmax=69 / qpstep=4 / cplxblur=20.0 / qblur=0.5 / ip_ratio=1.40 / aq=3:0.80
Default                                  : Yes
Forced                                   : No

Audio
ID                                       : 2
Format                                   : DTS
Format/Info                              : Digital Theater Systems
Mode                                     : 16
Format settings, Endianness              : Big
Codec ID                                 : A_DTS
Duration                                 : 1 h 25 min
Bit rate mode                            : Constant
Bit rate                                 : 1 509 kb/s
Channel(s)                               : 6 channels
Channel positions                        : Front: L C R, Side: L R, LFE
Sampling rate                            : 48.0 kHz
Frame rate                               : 93.750 FPS (512 spf)
Bit depth                                : 24 bits
Compression mode                         : Lossy
Stream size                              : 923 MiB (21%)
Language                                 : English
Default                                  : Yes
Forced                                   : No

Text #1
ID                                       : 3
Format                                   : UTF-8
Codec ID                                 : S_TEXT/UTF8
Codec ID/Info                            : UTF-8 Plain Text
Duration                                 : 1 h 18 min
Bit rate                                 : 28 b/s
Count of elements                        : 650
Stream size                              : 16.7 KiB (0%)
Language                                 : English
Default                                  : No
Forced                                   : No

Text #2
ID                                       : 4
Format                                   : VobSub
Muxing mode                              : zlib
Codec ID                                 : S_VOBSUB
Codec ID/Info                            : Picture based subtitle format used on DVDs
Duration                                 : 1 h 18 min
Bit rate                                 : 1 961 b/s
Count of elements                        : 650
Stream size                              : 1.11 MiB (0%)
Language                                 : English
Default                                  : Yes
Forced                                   : No

Menu
00:00:00.000                             : en:00:00:00.000
00:10:24.958                             : en:00:10:24.958
00:20:38.529                             : en:00:20:38.529
00:31:55.956                             : en:00:31:55.956
00:43:23.559                             : en:00:43:23.559
00:50:46.460                             : en:00:50:46.460
00:57:55.555                             : en:00:57:55.555
01:04:00.920                             : en:01:04:00.920
01:10:02.532                             : en:01:10:02.532
01:17:09.166                             : en:01:17:09.166

Скриншоты:



Все одноименные релизы в Клубе

Время раздачи: с 13:00 до 23:00
[NNMClub.to]_Phantasm.Ravager.2016.720p.mkv.torrent
 Торрент: Серебряная раздча  Зарегистрирован
 
Примагнититься
Free Leech
Зарегистрируйтесь и скачайте торрент!
22,1 KB
 Зарегистрирован:   02 Янв 2017 20:50:53
 Размер:   4,37 GB  (
 Рейтинг:    (Голосов: 7)
 Поблагодарили:   48
 Проверка:   Оформление проверено модератором 02 Янв 2017 20:51:21
Как cкачать  ·  Как раздать  ·  Правильно оформить  ·  Поднять ратио!  
kasha23
Стаж: 6 лет 1 мес.
Сообщений: 23
Ratio: 15,505
0.75%
Фантазм это как рюмка качественного ароматного коньяка!! Атмосферность зашкаливает! Сладкий терпкий аромат оцепенения!
amigaser
Стаж: 6 лет 7 мес.
Сообщений: 17
Ratio: 19,536
0%
Режиссёр правда уже не тот... :) Но сценарист и продюсер по-прежнему старина Коскарелли (правда в соавторстве с семейством Бэннистеров...). Ждём в качественном переводе без рекламы для коллекции.
ananfr
Стаж: 5 лет 1 мес.
Сообщений: 7
Ratio: 12,415
0.47%
не знаю,не знаю. конечно смотреть буду, НО! первые части просто шедевры, а вот дальше все хуже и хуже.......
amigaser
Стаж: 6 лет 7 мес.
Сообщений: 17
Ratio: 19,536
0%
Пересмотрите первые две части с высот современной киноиндустрии и, возможно, Вы измените своё мнение. В 1979 не было ни HD, ни компьютерной графики, все эффекты делались makeup - бутафорией на верёвочках и макетами и краской. Это тот редкий случай, когда неожиданные повороты сюжета и вопросы без ответов создают атмосферу фильма..., а не навороченные спецэффекты. Недаром Коскарелли не снимал продолжение 18 лет, не было качественного сценария - творческий тупик, он сам признавался... Да и после первой части вымучивал сюжеты... А эта часть скорее снята в угоду фанатам, чтобы завершить труд всей жизни. Нужен качественный перевод, иначе в атмосферу никак не попасть :(
Utkonos
Стаж: 5 лет 10 мес.
Сообщений: 23
Ratio: 13,013
0.24%
а длинного нет уже наверное
amigaser
Стаж: 6 лет 7 мес.
Сообщений: 17
Ratio: 19,536
0%
Да, Ангус Скримм умер в январе прошлого года в возрасте 89 лет. 37 лет периодически снимался в Фантазмах...
Utkonos
Стаж: 5 лет 10 мес.
Сообщений: 23
Ratio: 13,013
0.24%
по молодости помню - весь филбм на нем и держался
Adam-​06-In​gush​
Стаж: 4 года 3 мес.
Сообщений: 194
Ratio: 1,429
Поблагодарили: 7285
4.01%
russia.gif
пересмотрел все части и пришел к выводу, что Фантазм 5 худшая часть, я бы не советовал смотреть, зря потратите время
Genad84
Стаж: 6 лет 9 мес.
Сообщений: 11
Ratio: 5,474
50.71%
russia.gif
Utkonos писал(а): Перейти к сообщению
а длинного нет уже наверное

Angus Scrimm успел закончить съемки в этом фильме.
Tyawik
Стаж: 6 лет 2 мес.
Сообщений: 21
Ratio: 1,559
5.43%
russia.gif
Посмотрел все части: 5-я хуже остальных частей. Высокий сыграл на высоте!
Показать сообщения:   
Начать новую тему   Ответить на тему    Торрент-трекер NNM-Club -> Зарубежное кино -> Фильмы в оригинале (HD) Часовой пояс: GMT + 3
Страница 1 из 1