Интеллигентный торрент-трекер
canvas not supported
Нас вместе: 4 302 089

Совершенное оружие / The Perfect Weapon (2016) BDRip [H.264/720p] [PR]


Страницы:  1, 2  След. 
 
RSS
Начать новую тему   Ответить на тему    Торрент-трекер NNM-Club -> Горячие новинки -> Новинки (HD)
Автор Сообщение
chvv ®
Стаж: 6 лет 7 мес.
Сообщений: 511
Ratio: 109,194
Поблагодарили: 18497
100%
Откуда: Москва
russia.gif
Совершенное оружие / The Perfect Weapon (2016) BDRip [H.264/720p]

Производство: США, Швеция
Жанр: фантастика, боевик

Режиссер: Маттиас Пар
Актеры: Стивен Сигал, Кимберли Баттиста, Джонни Месснер, Саша Джексон, Ричард Тайсон, Вернон Уэллс, Сара Кейт Оллсап, Лэнс Э. Николс, Маттиас Пар, Маршал Хилтон, Филип Форнах

Описание:
В не слишком отдаленном будущем, тоталитарное государство с тайной правительственной организацией управляемая Директором контролирует любые аспекты жизни. Все «враги государства» находятся под особым контролем и большинство из них казнят оперативники тайной организации и профессиональные убийцы. Лучший оперативник с кодовым именем Кондор - элитный агент и наёмный убийца у правительства. Однако, в своем последнем задании он не убил лидера оппозиции и оказывается в бегах от государства на которое работает. В конечном итоге, это задействует цепочку событий с непредсказуемыми последствиями для всех участников. Может ли теперь Кондор выжить в охоте за ним всего могущественного государства и предательства так называемых союзников, ведь он и есть идеальное оружие.


премьера (мир): 11 июня 2016

Продолжительность: 01:23:32
Качество видео: BDRip 720p
Перевод: Многоголосый закадровый, любительский
Озвучка / Автор перевода: @MUZOBOZ@
Реклама: Присутствуют текстовые вставки рекламы.

Видео: AVC, 1280x536, 5137 kbps, 25.000 fps, 0,300 bpp
Аудио: АС3, 2ch, 640 kbps
Код: выделить все
Общее
Уникальный идентификатор                 : 201250228208592972558285139233882039068 (0x9767625335848B62987BD2754E88E31C)
Полное имя                               : 2016.The.Perfect.Weapon.BDRip.720p.mkv
Формат                                   : Matroska
Версия формата                           : Version 4 / Version 2
Размер файла                             : 3,37 Гбайт
Продолжительность                        : 1 ч. 23 м.
Режим общего битрейта                    : Переменный
Общий поток                              : 5779 Кбит/сек
Дата кодирования                         : UTC 2017-01-03 18:38:49
Программа кодирования                    : mkvmerge v9.6.0 ('Slave To Your Mind') 64bit
Библиотека кодирования                   : libebml v1.3.4 + libmatroska v1.4.5

Видео
Идентификатор                            : 1
Формат                                   : AVC
Формат/Информация                        : Advanced Video Codec
Профиль формата                          : High@L4.1
Параметр CABAC формата                   : Да
Параметр ReFrames формата                : 12 кадров
Идентификатор кодека                     : V_MPEG4/ISO/AVC
Продолжительность                        : 1 ч. 23 м.
Вид битрейта                             : Переменный
Битрейт                                  : 5137 Кбит/сек
Максимальный битрейт                     : 5500 Кбит/сек
Ширина                                   : 1280 пикселей
Высота                                   : 536 пикселей
Соотношение сторон                       : 2,40:1
Режим частоты кадров                     : Постоянный
Частота кадров                           : 25,000 кадров/сек
Стандарт вещания                         : Component
Цветовое пространство                    : YUV
Субдискретизация насыщенности            : 4:2:0
Битовая глубина                          : 8 бит
Тип развёртки                            : Прогрессивная
Бит/(Пиксели*Кадры)                      : 0.300
Размер потока                            : 3,00 Гбайт (89%)
Default                                  : Да
Forced                                   : Нет
Цветовой диапазон                        : Limited
Основные цвета                           : BT.709
Характеристики трансфера                 : BT.709
Коэффициенты матрицы                     : BT.709

Аудио
Идентификатор                            : 2
Формат                                   : AC-3
Формат/Информация                        : Audio Coding 3
Расширение режима                        : CM (complete main)
Параметр Endianness формата              : Big
Идентификатор кодека                     : A_AC3
Продолжительность                        : 1 ч. 23 м.
Вид битрейта                             : Постоянный
Битрейт                                  : 640 Кбит/сек
Каналы                                   : 2 канала
Расположение каналов                     : Front: L R
Частота                                  : 48,0 КГц
Частота кадров                           : 31,250 кадров/сек (1536 spf)
Битовая глубина                          : 16 бит
Метод сжатия                             : С потерями
Размер потока                            : 382 Мбайт (11%)
Заголовок                                : без рекламы :)
Язык                                     : Russian
Default                                  : Да
Forced                                   : Нет

Скриншоты:



Все одноименные релизы в Клубе

Время раздачи: 24/7
[NNMClub.to]_2016.The.Perfect.Weapon.BDRip.720p.mkv.torrent
 Торрент:   Зарегистрирован
 
Примагнититься
Free Leech
Зарегистрируйтесь и скачайте торрент!
17,1 KB
 Зарегистрирован:   03 Янв 2017 21:48:48
 Размер:   3,37 GB  (
 Рейтинг:   3,7 (Голосов: 74)
 Поблагодарили:   375
 Проверка:   Оформление проверено модератором 04 Янв 2017 07:38:19
Как cкачать  ·  Как раздать  ·  Правильно оформить  ·  Поднять ратио!  
Гаджи​ев_Ал​и​
Стаж: 1 год 4 мес.
Сообщений: 119
Ratio: 44,094
100%
ussr.gif
http://www.imdb.com/title/tt4616250/

Приятно видеть Российского актера в главных ролях

_________________
Хочешь провести незабываемую ночь с несколькими крошками? Съешь сухарик в постели!
chvv ®
Стаж: 6 лет 7 мес.
Сообщений: 511
Ratio: 109,194
Поблагодарили: 18497
100%
Откуда: Москва
russia.gif
снова не в тот раздел залил, сорри

_________________
Рекламные ролики и голосовая реклама в моих раздачах отсутствуют.
Топик был перенесен из форума Фильмы в оригинале (HD) в форум Новинки (HD)



Исправил релиз - напиши ЛС smaster67, дав ссылку на релиз.
Если нет ответа 24 часа - нажми на кнопку "Обратить внимание модераторов".
Last13

Online
Стаж: 2 года 8 мес.
Сообщений: 420
Ratio: 7,812
100%
10 лет уже, как на этом актере, как и на вандамме жирный крест поставил, но россиянин, мать его, надо смотреть)
Full HD Video
RG Releasers
Uploader 100+
 
Стаж: 5 лет 11 мес.
Сообщений: 4879
Ratio: 1095,78
Раздал: 171,8 TB
Поблагодарили: 622589
100%
Откуда: Из мира кино.
nnm-club.gif
chvv
Совершенное оружие / The Perfect Weapon (2016) BDRip [H.264/720p-LQ) - Убираем с заголовка, описание.
премьера (мир) где?
imdb рейтинг если не показывает в описании, в комментарий ссылку добавляем.
11.2 При наличии в релизе повреждений (будь это отсутствие звука в фильмах, рассинхрон звука и видео, заставка, голосовая или вшитая в видеоряд реклама) необходимо информировать об этом пользователей.
(Пример: Реклама: Присутствуют голосовые и текстовые вставки рекламы.)
Время раздачи: 24/7[/quote] Это что еще такое в шаблоне? поправляем.
Топик был перенесен из форума Новинки (HD) в форум Видео (temp)

Причина переноса: До исправления.

Исправил релиз - напиши ЛС Full HD Video, дав ссылку на релиз.
Если нет ответа 24 часа - нажми на кнопку "Обратить внимание модераторов".
Топик был перенесен из форума Видео (temp) в форум Новинки (HD)



Исправил релиз - напиши ЛС Full HD Video, дав ссылку на релиз.
Если нет ответа 24 часа - нажми на кнопку "Обратить внимание модераторов".
zvadjzs
Стаж: 6 лет 9 мес.
Сообщений: 149
Ratio: 2,08
0%
russia.gif
Сигал приехал в Россию, чтобы не отставать в актёрском мастерстве от актёров поблизости. Там в Голливуде он сильно отставал, а у нас в России он один из передовых мэтров боевика!
Крысиный Король
Стаж: 2 мес. 21 день
Сообщений: 38
Ratio: 1389,883
10.42%
russia.gif
Стивен Сигал....
Есть актеры, которые уходят на пике, есть истершиеся/истрепавшиеся, а есть такие которым лучше было бы не появляться.
Sonsaku
Стаж: 4 мес. 5 дней
Сообщений: 171
Ratio: 14,038
39.53%
southafrica.gif
encelad08
Стаж: 4 года 8 мес.
Сообщений: 120
Ratio: 0,675
96.27%
ussr.gif
Sonsaku писал(а): Перейти к сообщению
...Зачем, показали, как гг достает из под кровати, набор оружия, чтобы его даже не применить ?...

Ну да, совсем не по Чехову, ну там про ружьё в первом и третьем акте помните?
AscentAge
Стаж: 2 года 11 мес.
Сообщений: 24
Ratio: 13,646
87.48%
germany.gif
Надо смотреть. )
Panze​rschr​ek​
Стаж: 9 лет 2 мес.
Сообщений: 93
Ratio: 21,415
Поблагодарили: 60
95.12%
Если честно, не стоит это смотреть
Dilikk
Стаж: 5 лет 10 мес.
Сообщений: 7
Ratio: 14,376
43.72%
Полнейший бред,с дешевой игрой актеров ...(
Показать сообщения:   
Начать новую тему   Ответить на тему    Торрент-трекер NNM-Club -> Горячие новинки -> Новинки (HD) Часовой пояс: GMT + 3
Страницы:  1, 2  След.
Страница 1 из 2