Интеллигентный торрент-трекер
canvas not supported
Нас вместе: 4 347 272

Кевин Харт: Что теперь? / Kevin Hart: What Now? (2016) BDRemux [H.264/1080p] [EN / EN, Fr, Sp Sub]


 
 
RSS
Начать новую тему   Ответить на тему    Торрент-трекер NNM-Club -> Документалистика и Телепередачи
Автор Сообщение
smaster67 ®
Модератор Видео
Покровитель талантов Uploader 300+
Стаж: 7 лет 11 мес.
Сообщений: 6651
Ratio: 201,094
Поблагодарили: 193330
100%
Кевин Харт: Что теперь? / Kevin Hart: What Now? (2016) BDRemux [H.264/1080p] [EN / EN, Fr, Sp Sub]

Производство: США
Жанр: документальный, комедия

Режиссер: Лесли Смолл , Тим Стори
Актеры: Кевин Харт, Холли Берри, Дон Чидл, Эд Хелмс, Дэвид Мюнье, Джои Уэллс, Ричардсон Джонс, Мэгали Амадей, Питер Менса, Дэниэл Бернхард, Дэннис Кейффер

Описание:
Грандиозное стендап шоу знаменитого чернокожего комика Кевина Харта перед огромной толпой зрителей на стадионе «Линкольн Файненшел Филд», домашней арене команды Национальной футбольной лиги «Филадельфия Иглз».



Продолжительность: 01:36:29
Качество видео: BDRemux
Перевод: Отсутствует
Язык озвучки: Английский
Язык субтитров: английский, испанский, французский
Вид субтитров: Вшитые

Видео: AVC, 1920x1080 (16:9), 31352 kbps, 23,976 fps, 0,631 bpp
Аудио: английский / DTS-HD / 5.1 / 48 kHz / 3840 kbps / 24 bit (Core: 5.1 / 48 kHz / 1509 kbps / 24 bit)
Код: выделить все
General
Unique ID                               Kevin.Hart.What.Now.2016.REMUX.1080p.BluRay.AVC.DTS-HD.MA.5.1-iFT.mkv
Format                                   : Matroska
Format version                           : Version 4 / Version 2
File size                                : 23.7 GiB
Duration                                 : 1 h 36 min
Overall bit rate mode                    : Variable
Overall bit rate                         : 35.2 Mb/s
Encoded date                             : UTC 2017-01-03 04:24:26
Writing application                      : mkvmerge v8.9.0 ('Father Daughter') 64bit
Writing library                          : libebml v1.3.3 + libmatroska v1.4.4

Video
ID                                       : 1
Format                                   : AVC
Format/Info                              : Advanced Video Codec
Format profile                           : High@L4.1
Format settings, CABAC                   : Yes
Format settings, ReFrames                : 4 frames
Codec ID                                 : V_MPEG4/ISO/AVC
Duration                                 : 1 h 36 min
Bit rate mode                            : Variable
Bit rate                                 : 31.4 Mb/s
Maximum bit rate                         : 35.0 Mb/s
Width                                    : 1 920 pixels
Height                                   : 1 080 pixels
Display aspect ratio                     : 16:9
Frame rate mode                          : Constant
Frame rate                               : 23.976 (24000/1001) FPS
Color space                              : YUV
Chroma subsampling                       : 4:2:0
Bit depth                                : 8 bits
Scan type                                : Progressive
Bits/(Pixel*Frame)                       : 0.631
Stream size                              : 21.1 GiB (89%)
Title                                    : Kevin.Hart.What.Now.2016.REMUX.1080p.BluRay.AVC.DTS-HD.MA.5.1-iFT
Language                                 : English
Default                                  : Yes
Forced                                   : No

Audio
ID                                       : 2
Format                                   : DTS
Format/Info                              : Digital Theater Systems
Format profile                           : MA / Core
Mode                                     : 16
Format settings, Endianness              : Big
Codec ID                                 : A_DTS
Duration                                 : 1 h 36 min
Bit rate mode                            : Variable / Constant
Bit rate                                 : 3 840 kb/s / 1 509 kb/s
Channel(s)                               : 6 channels
Channel positions                        : Front: L C R, Side: L R, LFE
Sampling rate                            : 48.0 kHz
Frame rate                               : 93.750 FPS (512 spf)
Bit depth                                : 24 bits
Compression mode                         : Lossless / Lossy
Stream size                              : 2.56 GiB (11%)
Title                                    : English
Language                                 : English
Default                                  : Yes
Forced                                   : No

Text #1
ID                                       : 3
Format                                   : PGS
Muxing mode                              : zlib
Codec ID                                 : S_HDMV/PGS
Codec ID/Info                            : Picture based subtitle format used on BDs/HD-DVDs
Duration                                 : 1 h 30 min
Bit rate                                 : 21.1 kb/s
Count of elements                        : 4326
Stream size                              : 13.7 MiB (0%)
Title                                    : English-PGS
Language                                 : English
Default                                  : Yes
Forced                                   : No

Text #2
ID                                       : 4
Format                                   : PGS
Muxing mode                              : zlib
Codec ID                                 : S_HDMV/PGS
Codec ID/Info                            : Picture based subtitle format used on BDs/HD-DVDs
Duration                                 : 1 h 35 min
Bit rate                                 : 17.1 kb/s
Count of elements                        : 3932
Stream size                              : 11.7 MiB (0%)
Title                                    : Spanish-PGS
Language                                 : Spanish
Default                                  : No
Forced                                   : No

Text #3
ID                                       : 5
Format                                   : PGS
Muxing mode                              : zlib
Codec ID                                 : S_HDMV/PGS
Codec ID/Info                            : Picture based subtitle format used on BDs/HD-DVDs
Duration                                 : 1 h 35 min
Bit rate                                 : 16.3 kb/s
Count of elements                        : 3930
Stream size                              : 11.1 MiB (0%)
Title                                    : French-PGS
Language                                 : French
Default                                  : No
Forced                                   : No

Menu
00:00:00.000                             : en:Chapter 01
00:02:18.555                             : en:Chapter 02
00:10:50.441                             : en:Chapter 03
00:15:18.250                             : en:Chapter 04
00:19:18.574                             : en:Chapter 05
00:26:36.928                             : en:Chapter 06
00:29:06.870                             : en:Chapter 07
00:35:48.646                             : en:Chapter 08
00:39:03.341                             : en:Chapter 09
00:44:28.957                             : en:Chapter 10
00:50:07.587                             : en:Chapter 11
00:55:36.374                             : en:Chapter 12
01:00:57.445                             : en:Chapter 13
01:06:16.389                             : en:Chapter 14
01:10:29.225                             : en:Chapter 15
01:15:30.609                             : en:Chapter 16
01:20:49.135                             : en:Chapter 17
01:25:28.623                             : en:Chapter 18
01:29:18.978                             : en:Chapter 19
01:31:34.447                             : en:Chapter 20

Скриншоты:



Все одноименные релизы в Клубе

Время раздачи: с 13:00 до 23:00
[NNMClub.to]_Kevin.Hart.What.Now.2016.REMUX.1080p.BluRay.AVC.DTS-HD.MA.5.1-iFT.mkv.torrent
 Торрент: Золотая раздача  Зарегистрирован
 
Примагнититься
Free Leech
Зарегистрируйтесь и скачайте торрент!
119 KB
 Зарегистрирован:   03 Янв 2017 23:06:37
 Размер:   23,7 GB  (
 Рейтинг:    (Голосов: 9)
 Поблагодарили:   21
 Проверка:   Оформление проверено модератором 04 Янв 2017 23:06:14
Как cкачать  ·  Как раздать  ·  Правильно оформить  ·  Поднять ратио!  
Загрузка...
Histo​rian9​1Rus​
Стаж: 3 года 5 мес.
Сообщений: 1
Ratio: 0,676
0.88%
greece.gif
Когда будут Русские субтитры?
aktaff1
Стаж: 3 года 2 мес.
Сообщений: 159
Ratio: 7,375
100%
Откуда: London
uk.gif
Дождался! Наконец-то!!! Ребята, дайте скачать плиз!!!! Фиг с ними с русскими сабами :) Кевина нужно в оригинале смотреть!

_________________
aktaff1
Стаж: 3 года 2 мес.
Сообщений: 159
Ratio: 7,375
100%
Откуда: London
uk.gif
:(

_________________
Показать сообщения:   
Начать новую тему   Ответить на тему    Торрент-трекер NNM-Club -> Документалистика и Телепередачи Часовой пояс: GMT + 3
Страница 1 из 1