Интеллигентный торрент-трекер
canvas not supported
Нас вместе: 4 255 629

Макс Стил / Max Steel (2016) BDRemux [H.264/1080p] [EN / EN, Sp Sub]


 
 
RSS
Начать новую тему   Ответить на тему    Торрент-трекер NNM-Club -> Зарубежное кино -> Фильмы в оригинале (HD)
Автор Сообщение
smaster67 ®
Модератор Видео
Покровитель талантов Uploader 300+
Стаж: 7 лет 7 мес.
Сообщений: 6493
Ratio: 188,702
Поблагодарили: 185200
100%
Макс Стил / Max Steel (2016) BDRemux [H.264/1080p] [EN / EN, Sp Sub]

Производство: Великобритания, США
Жанр: фантастика, боевик, приключения

Режиссер: Стюарт Хендлер
Актеры: Бен Уинчелл, Джош Бренер, Мария Белло, Энди Гарсиа, Ана Виллафейн, Майк Дойл, Филлип ДеВона, Билли Слотер, Эл Митчелл, Лоуренс Као, Бретт Джентиле, Джани Уоллес

Описание:
Когда подросток Макс МакГрат обнаруживает, что его тело может генерировать наиболее мощную энергию во Вселенной, ему приходится встретиться с единственным существом, способным совладать с такой энергией - таинственным техно-органическим инопланетянином по имени Стил.



Продолжительность: 01:32:27
Качество видео: BDRemux
Перевод: Отсутствует
Язык озвучки: Английский
Язык субтитров: английский, испанский
Вид субтитров: Вшитые

Видео: AVC, 1920x1080 (16:9), 27731 kbps, 23,976 fps, 0,558 bpp
Аудио: английский / DTS-HD / 5.1 / 48 kHz / 3708 kbps / 24 bit (Core: 5.1 / 48 kHz / 1509 kbps / 24 bit)
Код: выделить все
General
Unique ID                                Max.Steel.2016.REMUX.1080p.BluRay.AVC.DTS-HD.MA.5.1-iFT.mkv
Format                                   : Matroska
Format version                           : Version 4 / Version 2
File size                                : 20.3 GiB
Duration                                 : 1 h 32 min
Overall bit rate mode                    : Variable
Overall bit rate                         : 31.5 Mb/s
Encoded date                             : UTC 2017-01-03 04:48:33
Writing application                      : mkvmerge v8.9.0 ('Father Daughter') 64bit
Writing library                          : libebml v1.3.3 + libmatroska v1.4.4

Video
ID                                       : 1
Format                                   : AVC
Format/Info                              : Advanced Video Codec
Format profile                           : High@L4.1
Format settings, CABAC                   : Yes
Format settings, ReFrames                : 2 frames
Codec ID                                 : V_MPEG4/ISO/AVC
Duration                                 : 1 h 32 min
Bit rate mode                            : Variable
Bit rate                                 : 27.7 Mb/s
Width                                    : 1 920 pixels
Height                                   : 1 080 pixels
Display aspect ratio                     : 16:9
Frame rate mode                          : Constant
Frame rate                               : 23.976 (24000/1001) FPS
Color space                              : YUV
Chroma subsampling                       : 4:2:0
Bit depth                                : 8 bits
Scan type                                : Progressive
Bits/(Pixel*Frame)                       : 0.558
Stream size                              : 17.9 GiB (88%)
Title                                    : Closet.Monster.2015.REMUX.1080p.BluRay.AVC.DTS-HD.MA.5.1-iFT
Language                                 : English
Default                                  : Yes
Forced                                   : No

Audio
ID                                       : 2
Format                                   : DTS
Format/Info                              : Digital Theater Systems
Format profile                           : MA / Core
Mode                                     : 16
Format settings, Endianness              : Big
Codec ID                                 : A_DTS
Duration                                 : 1 h 32 min
Bit rate mode                            : Variable / Constant
Bit rate                                 : 3 709 kb/s / 1 509 kb/s
Channel(s)                               : 6 channels
Channel positions                        : Front: L C R, Side: L R, LFE
Sampling rate                            : 48.0 kHz
Frame rate                               : 93.750 FPS (512 spf)
Bit depth                                : 24 bits
Compression mode                         : Lossless / Lossy
Stream size                              : 2.40 GiB (12%)
Title                                    : English
Language                                 : English
Default                                  : Yes
Forced                                   : No

Text #1
ID                                       : 3
Format                                   : PGS
Muxing mode                              : zlib
Codec ID                                 : S_HDMV/PGS
Codec ID/Info                            : Picture based subtitle format used on BDs/HD-DVDs
Duration                                 : 1 h 25 min
Bit rate                                 : 12.4 kb/s
Count of elements                        : 2578
Stream size                              : 7.59 MiB (0%)
Title                                    : English-PGS
Language                                 : English
Default                                  : Yes
Forced                                   : No

Text #2
ID                                       : 4
Format                                   : PGS
Muxing mode                              : zlib
Codec ID                                 : S_HDMV/PGS
Codec ID/Info                            : Picture based subtitle format used on BDs/HD-DVDs
Duration                                 : 1 h 30 min
Bit rate                                 : 9 288 b/s
Count of elements                        : 2040
Stream size                              : 6.04 MiB (0%)
Title                                    : Spanish-PGS
Language                                 : Spanish
Default                                  : No
Forced                                   : No

Menu
00:00:00.000                             : en:Chapter 01
00:04:43.283                             : en:Chapter 02
00:10:19.243                             : en:Chapter 03
00:15:11.535                             : en:Chapter 04
00:19:44.766                             : en:Chapter 05
00:23:05.050                             : en:Chapter 06
00:26:46.980                             : en:Chapter 07
00:30:20.276                             : en:Chapter 08
00:35:22.495                             : en:Chapter 09
00:38:15.584                             : en:Chapter 10
00:43:01.287                             : en:Chapter 11
00:48:07.217                             : en:Chapter 12
00:54:16.461                             : en:Chapter 13
01:00:07.061                             : en:Chapter 14
01:03:42.985                             : en:Chapter 15
01:08:38.197                             : en:Chapter 16
01:13:22.940                             : en:Chapter 17
01:19:59.628                             : en:Chapter 18
01:24:29.981                             : en:Chapter 19
01:26:45.491                             : en:Chapter 20

Скриншоты:



Все одноименные релизы в Клубе

Время раздачи: с 13:00 до 23:00
[NNMClub.to]_Max.Steel.2016.REMUX.1080p.BluRay.AVC.DTS-HD.MA.5.1-iFT.mkv.torrent
 Торрент: Золотая раздача  Зарегистрирован
 
Примагнититься

Зарегистрируйтесь и скачайте торрент!
102 KB
 Зарегистрирован:   04 Янв 2017 00:33:22
 Размер:   20,3 GB  (
 Рейтинг:    (Голосов: 5)
 Поблагодарили:   38
 Проверка:   Оформление проверено модератором 04 Янв 2017 00:34:18
Как cкачать  ·  Как раздать  ·  Правильно оформить  ·  Поднять ратио!  
Ivaemon
Стаж: 7 лет 10 мес.
Сообщений: 24
Ratio: 17,973
47.7%
ukraine.gif
IMDB - 4,6
timbe​rlack​e​
Стаж: 9 лет 7 мес.
Сообщений: 621
Ratio: 12,421
2.98%
IMDB еще чуть просел до 4,5.

Фильм посмотрел, сюжет бестолковый, снято похабно. ИМХО фильм на троечку, посмотрел и забыл.
Показать сообщения:   
Начать новую тему   Ответить на тему    Торрент-трекер NNM-Club -> Зарубежное кино -> Фильмы в оригинале (HD) Часовой пояс: GMT + 3
Страница 1 из 1