Интеллигентный торрент-трекер
canvas not supported
Нас вместе: 4 330 304

Отрицание / Denial (2016) BDRemux [H.264/1080p] [EN / EN Sub]


 
 
RSS
Начать новую тему   Ответить на тему    Торрент-трекер NNM-Club -> Зарубежное кино -> Фильмы в оригинале (HD)
Автор Сообщение
smaster67 ®
Модератор Видео
Покровитель талантов Uploader 300+
Стаж: 8 лет
Сообщений: 6669
Ratio: 202,668
Поблагодарили: 194091
100%
Отрицание / Denial (2016) BDRemux [H.264/1080p] [EN / EN Sub]

Производство: США, Великобритания
Жанр: драма, биография, история

Режиссер: Мик Джексон
Актеры: Рэйчел Вайс, Эндрю Скотт, Тимоти Сполл, Том Уилкинсон, Марк Гейтисс, Харриет Уолтер, Джек Лауден, Алекс Дженнингс, Карен Писториус, Андреа Дэк, Тодд Бойс, Максимилиан Бефорт

Описание:
Признанный писатель и историк Дэбора Е. Липштадт должна отстоять право на историческую правду, доказывающую, что Холокост был, в ответ на обвинения в клевете известного отрицателя Холокоста Дэвида Ирвинга.



Продолжительность: 01:50:32
Качество видео: BDRemux
Перевод: Отсутствует
Язык озвучки: Английский
Язык субтитров: английский
Вид субтитров: Вшитые

Видео: AVC, 1920x1080 (16:9), 31446 kbps, 23,976 fps, 0,633 bpp
Аудио: английский / DTS-HD / 5.1 / 48 kHz / 3245 kbps / 24 bit (Core: 5.1 / 48 kHz / 1509 kbps / 24 bit)
Код: выделить все
General
Unique ID                                Denial.2016.REMUX.1080p.BluRay.AVC.DTS-HD.MA.5.1-iFT.mkv
Format                                   : Matroska
Format version                           : Version 4 / Version 2
File size                                : 26.8 GiB
Duration                                 : 1 h 50 min
Overall bit rate mode                    : Variable
Overall bit rate                         : 34.7 Mb/s
Encoded date                             : UTC 2017-01-03 05:09:25
Writing application                      : mkvmerge v8.9.0 ('Father Daughter') 64bit
Writing library                          : libebml v1.3.3 + libmatroska v1.4.4

Video
ID                                       : 1
Format                                   : AVC
Format/Info                              : Advanced Video Codec
Format profile                           : High@L4.1
Format settings, CABAC                   : Yes
Format settings, ReFrames                : 4 frames
Codec ID                                 : V_MPEG4/ISO/AVC
Duration                                 : 1 h 50 min
Bit rate mode                            : Variable
Bit rate                                 : 31.4 Mb/s
Maximum bit rate                         : 35.0 Mb/s
Width                                    : 1 920 pixels
Height                                   : 1 080 pixels
Display aspect ratio                     : 16:9
Frame rate mode                          : Constant
Frame rate                               : 23.976 (24000/1001) FPS
Color space                              : YUV
Chroma subsampling                       : 4:2:0
Bit depth                                : 8 bits
Scan type                                : Progressive
Bits/(Pixel*Frame)                       : 0.633
Stream size                              : 24.3 GiB (91%)
Title                                    : Denial.2016.REMUX.1080p.BluRay.AVC.DTS-HD.MA.5.1-iFT
Language                                 : English
Default                                  : Yes
Forced                                   : No

Audio
ID                                       : 2
Format                                   : DTS
Format/Info                              : Digital Theater Systems
Format profile                           : MA / Core
Mode                                     : 16
Format settings, Endianness              : Big
Codec ID                                 : A_DTS
Duration                                 : 1 h 50 min
Bit rate mode                            : Variable / Constant
Bit rate                                 : 3 246 kb/s / 1 509 kb/s
Channel(s)                               : 6 channels
Channel positions                        : Front: L C R, Side: L R, LFE
Sampling rate                            : 48.0 kHz
Frame rate                               : 93.750 FPS (512 spf)
Bit depth                                : 24 bits
Compression mode                         : Lossless / Lossy
Stream size                              : 2.51 GiB (9%)
Title                                    : English
Language                                 : English
Default                                  : Yes
Forced                                   : No

Text
ID                                       : 3
Format                                   : PGS
Muxing mode                              : zlib
Codec ID                                 : S_HDMV/PGS
Codec ID/Info                            : Picture based subtitle format used on BDs/HD-DVDs
Duration                                 : 1 h 44 min
Bit rate                                 : 18.7 kb/s
Count of elements                        : 4167
Stream size                              : 13.9 MiB (0%)
Title                                    : English-PGS
Language                                 : English
Default                                  : Yes
Forced                                   : No

Menu
00:00:00.000                             : en:Chapter 01
00:05:19.068                             : en:Chapter 02
00:09:13.970                             : en:Chapter 03
00:15:51.200                             : en:Chapter 04
00:19:36.049                             : en:Chapter 05
00:25:44.334                             : en:Chapter 06
00:31:13.037                             : en:Chapter 07
00:41:05.379                             : en:Chapter 08
00:47:15.582                             : en:Chapter 09
00:54:47.534                             : en:Chapter 10
00:58:15.283                             : en:Chapter 11
01:07:59.283                             : en:Chapter 12
01:13:07.257                             : en:Chapter 13
01:17:50.248                             : en:Chapter 14
01:22:18.558                             : en:Chapter 15
01:28:07.782                             : en:Chapter 16
01:31:36.699                             : en:Chapter 17
01:36:10.222                             : en:Chapter 18
01:40:39.241                             : en:Chapter 19
01:46:12.783                             : en:Chapter 20

Скриншоты:



Все одноименные релизы в Клубе

Время раздачи: с 13:00 до 23:00
[NNMClub.to]_Denial.2016.REMUX.1080p.BluRay.AVC.DTS-HD.MA.5.1-iFT.mkv.torrent
 Торрент: Золотая раздача  Зарегистрирован
 
Примагнититься
Free Leech
Зарегистрируйтесь и скачайте торрент!
134 KB
 Зарегистрирован:   04 Янв 2017 02:05:06
 Размер:   26,8 GB  (
 Рейтинг:    (Голосов: 4)
 Поблагодарили:   21
 Проверка:   Оформление проверено модератором 04 Янв 2017 02:05:37
Как cкачать  ·  Как раздать  ·  Правильно оформить  ·  Поднять ратио!  
geptyl
Стаж: 6 лет 11 мес.
Сообщений: 26
Ratio: 0,946
13.62%
Холокост распиаренная евреями некая история из их жизни. Если взять количество других убитых людей, то еврейский холокост не более чем вечеринка. Но умение евреев продать любое   и выкружить выгоду на пустом месте могло бы вызвать уважение, но евреи делают это с абсолютной наглостью, хамством по отношению к другим и жаждой поживы во что бы то ни стало. К счастью есть евреи которые крайне трезво оценивают холокостные сказки.
Показать сообщения:   
Начать новую тему   Ответить на тему    Торрент-трекер NNM-Club -> Зарубежное кино -> Фильмы в оригинале (HD) Часовой пояс: GMT + 3
Страница 1 из 1