Классический форум-трекер
canvas not supported
Нас вместе: 4 094 986

Здравствуйте, мы ваша крыша! (2005) DVDRip


 
 
RSS
Начать новую тему   Ответить на тему    Торрент-трекер NNM-Club -> Отечественное кино -> Отечественные Фильмы (HD*Rip/LQ, DVDRip, SATRip, VHSRip)
Автор Сообщение
belomormuhamor ®
Гость
Здравствуйте, мы ваша крыша! (2005) DVDRip
Производство: Россия / Русское Счастье Интертейнмент, Студия Черепаха
Жанр: Комедия

Режиссер: Виталий Мухаметзянов
Актеры: Семён Стругачев, Андрей Федорцов, Михаил Полицеймако, Евгений Булдаков, Михаил Козаков, Инга Маневич, Петр Коршунков, Михаил Богдасаров, Мария Берсенева

Описание:
Провинциальный бизнесмен Каприщев должен вернуть долг. Пытаясь собрать нужную сумму, он лишается всех денег, ценных бумаг, любовницы, офиса и едва не самой жизни. В это же время маляр Дубровский, ремонтирующий офис Каприщева, неожиданно становится миллионером. Именно к нему непостижимым для самого Дубровского образом перекочевывают все активы бизнесмена…


Возраст: 0+ (для любой зрительской аудитории)

Продолжительность: 01:36:11
Качество видео: DVDRip

Видео: DivX 5б 512x288, 911 Kbps
Аудио: MP3 2 ch, 96 Kbps

Zdrastvujte.my.vasha.krysha.ura101.sharelita.avi
Format : AVI
Format/Info : Audio Video Interleave
File size : 700 MiB
Duration : 1h 36mn
Overall bit rate : 1 017 Kbps

Video
ID : 0
Format : MPEG-4 Visual
Format settings, BVOP : 1
Format settings, QPel : No
Format settings, GMC : No warppoints
Format settings, Matrix : Default (H.263)
Muxing mode : Packed bitstream
Codec ID : DX50
Codec ID/Hint : DivX 5
Duration : 1h 36mn
Bit rate : 911 Kbps
Width : 512 pixels
Height : 288 pixels
Display aspect ratio : 16:9
Frame rate : 25.000 fps
Color space : YUV
Chroma subsampling : 4:2:0
Bit depth : 8 bits
Scan type : Progressive
Compression mode : Lossy
Bits/(Pixel*Frame) : 0.247
Stream size : 627 MiB (90%)
Title : Video
Writing library : DivX 5.2.1 Alpha (UTC 2004-09-08)

Audio
ID : 1
Format : MPEG Audio
Format version : Version 1
Format profile : Layer 3
Codec ID : 55
Codec ID/Hint : MP3
Duration : 1h 36mn
Bit rate mode : Constant
Bit rate : 96.0 Kbps
Channel(s) : 2 channels
Sampling rate : 48.0 KHz
Compression mode : Lossy
Stream size : 66.0 MiB (9%)
Alignment : Split accross interleaves
Interleave, duration : 40 ms (1.00 video frame)
Interleave, preload duration : 500 ms
Title : Audio
Скриншоты:


Все одноименные релизы в Клубе

Время раздачи: 24/7 (до появления первых 3-5 скачавших)
Zdrastvujte.my.vasha.krysha.ura101.sharelita.avi.torrent
 Торрент: Платиновая раздача  Зарегистрирован
 
Скачать


Примагнититься
 Зарегистрирован:   11 Янв 2020 19:41:59
 Размер:   700 MB  (
 Рейтинг:   4,4 (Голосов: 83)
 Поблагодарили:   279
 Проверка:   Оформление проверено модератором 11 Янв 2020 20:56:09
Как cкачать  ·  Как раздать  ·  Правильно оформить  ·  Поднять ратио!  
antimah
Стаж: 12 лет 8 мес.
Сообщений: 118
Ratio: 19,008
Поблагодарили: 542
100%
russia.gif
О! Угарная комедия! =) Советую посмотреть всем, кто не смотрел!
Aalex-k25
Стаж: 13 лет 4 мес.
Сообщений: 46
Ratio: 27,602
Поблагодарили: 31
100%
pirates.png
класная комедия советую!!!
lisik_s
Стаж: 10 лет 11 мес.
Сообщений: 26
Ratio: 3,029
100%
Откуда: Сумы
ukraine.gif
спасибо!
suh1943
Стаж: 11 лет 5 мес.
Сообщений: 159
Ratio: 1,816
100%
Откуда: Ивано-Франковск
ukraine.gif
Побольше б таких фильмов.Комедия класс!!!5 из5!
drkaktusss
Стаж: 9 лет 9 мес.
Сообщений: 106
Ratio: 11,008
0.78%
Что за бред, откуда взялся среди этих клоунов Валентин Гафт???
suh1943
Стаж: 11 лет 5 мес.
Сообщений: 159
Ratio: 1,816
100%
Откуда: Ивано-Франковск
ukraine.gif
:респект:
Kalex
Администратор
Стаж: 12 лет 5 мес.
Сообщений: 33872
Ratio: 114,402
Поблагодарили: 13740
100%
nnm-club.gif
Торрент перерегистрирован на трекере в рамках акции Включаем DHT в древних раздачах
Теперь вам нужно его скачать и открыть в торрент-клиенте, указав в качестве места сохранения раздаваемый файл или папку.

_________________
NNMClub и IPv6/Teredo
... если преступников недостаточно, их надо создавать. Кому нужна нация, состоящая сплошь из законопослушных граждан? Какая от нее польза? А вот издайте законы, которые нельзя ни соблюдать, ни проводить в жизнь, ни объективно трактовать, и вы получите нацию нарушителей, а значит, сможете заработать на преступлениях... /Айн Рэнд, «Атлант расправил плечи»/
SCman
Стаж: 8 лет 1 мес.
Сообщений: 113
Ratio: 1,219
0.89%
Дрисня фильм
Показать сообщения:   
Начать новую тему   Ответить на тему    Торрент-трекер NNM-Club -> Отечественное кино -> Отечественные Фильмы (HD*Rip/LQ, DVDRip, SATRip, VHSRip) Часовой пояс: GMT + 3
Страница 1 из 1