Интеллигентный торрент-трекер
canvas not supported
Нас вместе: 4 187 899

Девушка в поезде / The Girl on the Train (2016) BDRip [H.264/720p] [EN / EN Sub]


 
 
RSS
Начать новую тему   Ответить на тему    Торрент-трекер NNM-Club -> Зарубежное кино -> Фильмы в оригинале (HD)
Автор Сообщение
smaster67 ®
Модератор Видео
Покровитель талантов Uploader 300+
Стаж: 7 лет 6 мес.
Сообщений: 6378
Ratio: 186,136
Поблагодарили: 179618
100%
Девушка в поезде / The Girl on the Train (2016) BDRip [H.264/720p] [EN / EN Sub]

Производство: США
Жанр: триллер, драма, детектив

Режиссер: Тейт Тейлор
Актеры: Эмили Блант, Хейли Беннетт, Ребекка Фергюсон, Джастин Теру, Люк Эванс, Эдгар Рамирес, Лора Припон, Эллисон Дженни, Даррен Голдштейн, Лиза Кудроу, Клета Элейн Эллингтон, Лана Янг

Описание:
Каждый день поезд проносит Рэйчел мимо очаровательного коттеджа, где живет идеальная на первый взгляд пара. Но однажды идиллия разрушится - прекрасная незнакомка бесследно исчезнет. Рэйчел окажется втянута в весьма запутанную историю, ведь только она видела из окна то, что было скрыто ото всех.



Продолжительность: 01:52:05
Качество видео: BDRip
Перевод: Отсутствует
Язык озвучки: Английский
Язык субтитров: английский
Вид субтитров: Вшитые

Видео: AVC, 1280x692 (1.85:1), 5500 kbps, 23,976 fps, 0,259 bpp
Аудио: английский / DTS / 5.1 / 48 kHz / 1509 kbps / 24 bit
Код: выделить все
General
Unique ID                                The.Girl.on.the.Train.2016.720p.BluRay.x264.DTS-HDChina\The.Girl.on.the.Train.2016.720p.BluRay.x264.DTS-HDChina.mkv
Format                                   : Matroska
Format version                           : Version 2
File size                                : 5.49 GiB
Duration                                 : 1 h 52 min
Overall bit rate                         : 7 017 kb/s
Movie name                               : Girl on the Train 720p BluRay x264 DTS-HDChina
Encoded date                             : UTC 2017-01-05 02:38:31
Writing application                      : mkvmerge v5.8.0 ('No Sleep / Pillow') built on Sep  2 2012 15:37:04
Writing library                          : libebml v1.2.3 + libmatroska v1.3.0

Video
ID                                       : 1
Format                                   : AVC
Format/Info                              : Advanced Video Codec
Format profile                           : High@L4.1
Format settings, CABAC                   : Yes
Format settings, ReFrames                : 12 frames
Muxing mode                              : Header stripping
Codec ID                                 : V_MPEG4/ISO/AVC
Duration                                 : 1 h 52 min
Bit rate                                 : 5 500 kb/s
Width                                    : 1 280 pixels
Height                                   : 692 pixels
Display aspect ratio                     : 1.85:1
Frame rate mode                          : Constant
Frame rate                               : 23.976 (24000/1001) FPS
Color space                              : YUV
Chroma subsampling                       : 4:2:0
Bit depth                                : 8 bits
Scan type                                : Progressive
Bits/(Pixel*Frame)                       : 0.259
Stream size                              : 4.20 GiB (77%)
Title                                    : Medusa @ HDChina
Writing library                          : x264 core 148 r2665kMod a01e339
Encoding settings                        : cabac=1 / ref=12 / deblock=1:-3:-3 / analyse=0x3:0x133 / me=umh / subme=11 / psy=1 / fade_compensate=0.00 / psy_rd=1.05:0.00 / mixed_ref=1 / me_range=32 / chroma_me=1 / trellis=2 / 8x8dct=1 / cqm=0 / deadzone=21,11 / fast_pskip=0 / chroma_qp_offset=-2 / threads=22 / lookahead_threads=3 / sliced_threads=0 / nr=0 / decimate=0 / interlaced=0 / bluray_compat=0 / constrained_intra=0 / fgo=0 / bframes=8 / b_pyramid=2 / b_adapt=2 / b_bias=0 / direct=3 / weightb=1 / open_gop=0 / weightp=2 / keyint=240 / keyint_min=24 / scenecut=40 / intra_refresh=0 / rc=2pass / mbtree=0 / bitrate=5500 / ratetol=1.0 / qcomp=0.70 / qpmin=0 / qpmax=69 / qpstep=4 / cplxblur=20.0 / qblur=0.5 / ip_ratio=1.20 / pb_ratio=1.20 / aq=3:0.85
Language                                 : English
Default                                  : Yes
Forced                                   : No

Audio
ID                                       : 2
Format                                   : DTS
Format/Info                              : Digital Theater Systems
Mode                                     : 16
Format settings, Endianness              : Big
Muxing mode                              : Header stripping
Codec ID                                 : A_DTS
Duration                                 : 1 h 52 min
Bit rate mode                            : Constant
Bit rate                                 : 1 509 kb/s
Channel(s)                               : 6 channels
Channel positions                        : Front: L C R, Side: L R, LFE
Sampling rate                            : 48.0 kHz
Frame rate                               : 93.750 FPS (512 spf)
Bit depth                                : 24 bits
Compression mode                         : Lossy
Stream size                              : 1.18 GiB (22%)
Language                                 : English
Default                                  : Yes
Forced                                   : No

Text
ID                                       : 3
Format                                   : PGS
Muxing mode                              : zlib
Codec ID                                 : S_HDMV/PGS
Codec ID/Info                            : Picture based subtitle format used on BDs/HD-DVDs
Language                                 : English
Default                                  : Yes
Forced                                   : No

Menu
00:00:00.000                             : en:00:00:00.000
00:06:01.778                             : en:00:06:01.778
00:09:29.903                             : en:00:09:29.903
00:18:15.970                             : en:00:18:15.970
00:25:26.150                             : en:00:25:26.150
00:32:04.506                             : en:00:32:04.506
00:37:04.973                             : en:00:37:04.973
00:44:52.315                             : en:00:44:52.315
00:49:22.459                             : en:00:49:22.459
00:55:07.012                             : en:00:55:07.012
00:59:36.031                             : en:00:59:36.031
01:03:34.811                             : en:01:03:34.811
01:09:25.787                             : en:01:09:25.787
01:14:36.430                             : en:01:14:36.430
01:19:08.702                             : en:01:19:08.702
01:23:44.728                             : en:01:23:44.728
01:28:07.491                             : en:01:28:07.491
01:33:49.457                             : en:01:33:49.457
01:38:54.554                             : en:01:38:54.554
01:45:55.182                             : en:01:45:55.182

Скриншоты:



Все одноименные релизы в Клубе

Время раздачи: с 13:00 до 23:00
[NNMClub.to]_The.Girl.on.the.Train.2016.720p.BluRay.x264.DTS-HDChina.mkv.torrent
 Торрент: Серебряная раздча  Зарегистрирован
 
Примагнититься
Free Leech
Зарегистрируйтесь и скачайте торрент!
27,7 KB
 Зарегистрирован:   06 Янв 2017 01:03:16
 Размер:   5,49 GB  (
 Рейтинг:    (Голосов: 5)
 Поблагодарили:   35
 Проверка:   Оформление проверено модератором 06 Янв 2017 01:06:53
Как cкачать  ·  Как раздать  ·  Правильно оформить  ·  Поднять ратио!  
Показать сообщения:   
Начать новую тему   Ответить на тему    Торрент-трекер NNM-Club -> Зарубежное кино -> Фильмы в оригинале (HD) Часовой пояс: GMT + 3
Страница 1 из 1