Интеллигентный торрент-трекер
canvas not supported
Нас вместе: 4 300 124

Уиджи. Проклятие доски дьявола / Ouija: Origin of Evil (2016) BDRip [H.264/720p] [EN / EN Sub]


 
 
RSS
Начать новую тему   Ответить на тему    Торрент-трекер NNM-Club -> Зарубежное кино -> Фильмы в оригинале (HD)
Автор Сообщение
smaster67 ®
Модератор Видео
Покровитель талантов Uploader 300+
Стаж: 7 лет 8 мес.
Сообщений: 6576
Ratio: 192,148
Поблагодарили: 189485
100%
Уиджи. Проклятие доски дьявола / Ouija: Origin of Evil (2016) BDRip [H.264/720p] [EN / EN Sub]

Производство: Япония, США
Жанр: ужасы, триллер

Режиссер: Майк Флэнеган
Актеры: Анналиса Бассо, Элизабет Ризер, Лулу Уилсон, Генри Томас, Паркер Мак, Холли Чарлтон, Алексис Дж. Залл, Даг Джонс, Кейт Сигел, Сэм Андерсон, Челси Гонзалез, Линкольн Мелчер

Описание:
Спиритическая доска Уиджи никогда не была просто игрой. Она служила порталом в мир мертвых. Столетиями она служила вратами между миром живых и царством мертвых. Но однажды духи выйдут из-под контроля, и первородное зло овладеет душой ребенка...



Продолжительность: 01:38:54
Качество видео: BDRip
Перевод: Отсутствует
Язык озвучки: Английский
Язык субтитров: английский
Вид субтитров: Вшитые

Видео: AVC, 1280x692 (1.85:1), 5500 kbps, 23,976 fps, 0,259 bpp
Аудио: английский / DTS / 5.1 / 48 kHz / 1509 kbps / 24 bit
Код: выделить все
General
Unique ID                               Ouija.Origin.of.Evil.2016.720p.BluRay.x264.DTS-HDChina\Ouija.Origin.of.Evil.2016.720p.BluRay.x264.DTS-HDChina.mkv
Format                                   : Matroska
Format version                           : Version 2
File size                                : 4.85 GiB
Duration                                 : 1 h 38 min
Overall bit rate                         : 7 017 kb/s
Movie name                               : Ouija Origin of Evil 2016 720p BluRay x264 DTS-HDChina
Encoded date                             : UTC 2017-01-05 10:44:37
Writing application                      : mkvmerge v5.8.0 ('No Sleep / Pillow') built on Sep  2 2012 15:37:04
Writing library                          : libebml v1.2.3 + libmatroska v1.3.0

Video
ID                                       : 1
Format                                   : AVC
Format/Info                              : Advanced Video Codec
Format profile                           : High@L4.1
Format settings, CABAC                   : Yes
Format settings, ReFrames                : 9 frames
Muxing mode                              : Header stripping
Codec ID                                 : V_MPEG4/ISO/AVC
Duration                                 : 1 h 38 min
Bit rate                                 : 5 500 kb/s
Width                                    : 1 280 pixels
Height                                   : 692 pixels
Display aspect ratio                     : 1.85:1
Frame rate mode                          : Constant
Frame rate                               : 23.976 (24000/1001) FPS
Color space                              : YUV
Chroma subsampling                       : 4:2:0
Bit depth                                : 8 bits
Scan type                                : Progressive
Bits/(Pixel*Frame)                       : 0.259
Stream size                              : 3.71 GiB (77%)
Writing library                          : x264 core 148 r2665kMod a01e339
Encoding settings                        : cabac=1 / ref=9 / deblock=1:-3:-3 / analyse=0x3:0x133 / me=umh / subme=11 / psy=1 / fade_compensate=0.00 / psy_rd=1.05:0.00 / mixed_ref=1 / me_range=32 / chroma_me=1 / trellis=2 / 8x8dct=1 / cqm=0 / deadzone=21,11 / fast_pskip=0 / chroma_qp_offset=-2 / threads=22 / lookahead_threads=3 / sliced_threads=0 / nr=0 / decimate=0 / interlaced=0 / bluray_compat=0 / constrained_intra=0 / fgo=0 / bframes=8 / b_pyramid=2 / b_adapt=2 / b_bias=0 / direct=3 / weightb=1 / open_gop=0 / weightp=2 / keyint=240 / keyint_min=24 / scenecut=40 / intra_refresh=0 / rc=2pass / mbtree=0 / bitrate=5500 / ratetol=1.0 / qcomp=0.70 / qpmin=0 / qpmax=69 / qpstep=4 / cplxblur=20.0 / qblur=0.5 / ip_ratio=1.20 / pb_ratio=1.20 / aq=3:0.85
Language                                 : English
Default                                  : Yes
Forced                                   : No

Audio
ID                                       : 2
Format                                   : DTS
Format/Info                              : Digital Theater Systems
Mode                                     : 16
Format settings, Endianness              : Big
Muxing mode                              : Header stripping
Codec ID                                 : A_DTS
Duration                                 : 1 h 38 min
Bit rate mode                            : Constant
Bit rate                                 : 1 509 kb/s
Channel(s)                               : 6 channels
Channel positions                        : Front: L C R, Side: L R, LFE
Sampling rate                            : 48.0 kHz
Frame rate                               : 93.750 FPS (512 spf)
Bit depth                                : 24 bits
Compression mode                         : Lossy
Stream size                              : 1.04 GiB (22%)
Language                                 : English
Default                                  : Yes
Forced                                   : No

Text
ID                                       : 3
Format                                   : PGS
Muxing mode                              : zlib
Codec ID                                 : S_HDMV/PGS
Codec ID/Info                            : Picture based subtitle format used on BDs/HD-DVDs
Language                                 : English
Default                                  : Yes
Forced                                   : No

Menu
00:00:00.000                             : en:00:00:00.000
00:05:30.747                             : en:00:05:30.747
00:09:12.469                             : en:00:09:12.469
00:14:19.525                             : en:00:14:19.525
00:21:37.880                             : en:00:21:37.880
00:25:24.314                             : en:00:25:24.314
00:30:09.850                             : en:00:30:09.850
00:35:53.318                             : en:00:35:53.318
00:39:04.384                             : en:00:39:04.384
00:43:53.464                             : en:00:43:53.464
00:48:49.677                             : en:00:48:49.677
00:55:11.683                             : en:00:55:11.683
00:58:47.607                             : en:00:58:47.607
01:05:27.715                             : en:01:05:27.715
01:10:46.284                             : en:01:10:46.284
01:14:26.420                             : en:01:14:26.420
01:18:25.075                             : en:01:18:25.075
01:21:48.403                             : en:01:21:48.403
01:27:42.841                             : en:01:27:42.841
01:31:03.291                             : en:01:31:03.291

Скриншоты:



Все одноименные релизы в Клубе

Время раздачи: с 13:00 до 23:00
[NNMClub.to]_Ouija.Origin.of.Evil.2016.720p.BluRay.x264.DTS-HDChina.mkv.torrent
 Торрент: Серебряная раздча  Зарегистрирован
 
Примагнититься

Зарегистрируйтесь и скачайте торрент!
24,5 KB
 Зарегистрирован:   06 Янв 2017 01:29:53
 Размер:   4,85 GB  (
 Рейтинг:    (Голосов: 8)
 Поблагодарили:   34
 Проверка:   Оформление проверено модератором 06 Янв 2017 01:30:56
Как cкачать  ·  Как раздать  ·  Правильно оформить  ·  Поднять ратио!  
Показать сообщения:   
Начать новую тему   Ответить на тему    Торрент-трекер NNM-Club -> Зарубежное кино -> Фильмы в оригинале (HD) Часовой пояс: GMT + 3
Страница 1 из 1