Интеллигентный торрент-трекер
canvas not supported
Нас вместе: 4 252 494

Трансформация / Rupture (2016) BDRip [H.264/720p] [EN]


 
 
RSS
Начать новую тему   Ответить на тему    Торрент-трекер NNM-Club -> Зарубежное кино -> Фильмы в оригинале (HD)
Автор Сообщение
smaster67 ®
Модератор Видео
Покровитель талантов Uploader 300+
Стаж: 7 лет 7 мес.
Сообщений: 6486
Ratio: 188,567
Поблагодарили: 185056
100%
Трансформация / Rupture (2016) BDRip [H.264/720p] [EN]

Производство: США, Канада
Жанр: фантастика, триллер

Режиссер: Стивен Шейнберг
Актеры: Нуми Рапас, Петер Стормаре, Керри Бише, Майкл Чиклис, Лесли Мэнвилл, Серджо Ди Зио, Пол Попович, Эри Миллен, Перси Хайнс Уайт, Джин Юн, Морган Келли, Джоэль Лабелль

Описание:
Рене живет со своим 12-летним сыном в тихом районе на окраине города. Она страшно боится пауков. Однажды ее похищают незнакомцы, и она приходит в себя в лаборатории, где узнает, что она - уникальный обладатель генетической аномалии, которая может помочь ей трансформироваться в иную сущность, в монстра...



Продолжительность: 01:41:15
Качество видео: BDRip
Перевод: Отсутствует
Язык озвучки: Английский

Видео: AVC, 1280x536 (2.40:1), 4670 kbps, 23,976 fps, 0,284 bpp
Аудио: английский / DTS / 5.1 / 48 kHz / 1509 kbps / 24 bit
Код: выделить все
General
Unique ID                               Rupture.2016.720p.mkv
Format                                   : Matroska
Format version                           : Version 4 / Version 2
File size                                : 4.37 GiB
Duration                                 : 1 h 41 min
Overall bit rate                         : 6 182 kb/s
Encoded date                             : UTC 2017-01-05 20:45:43
Writing application                      : mkvmerge v8.3.0 ('Over the Horizon') 64bit
Writing library                          : libebml v1.3.1 + libmatroska v1.4.2

Video
ID                                       : 1
Format                                   : AVC
Format/Info                              : Advanced Video Codec
Format profile                           : High@L4.1
Format settings, CABAC                   : Yes
Format settings, ReFrames                : 5 frames
Codec ID                                 : V_MPEG4/ISO/AVC
Duration                                 : 1 h 41 min
Bit rate                                 : 4 670 kb/s
Width                                    : 1 280 pixels
Height                                   : 536 pixels
Display aspect ratio                     : 2.40:1
Frame rate mode                          : Constant
Frame rate                               : 23.976 FPS
Color space                              : YUV
Chroma subsampling                       : 4:2:0
Bit depth                                : 8 bits
Scan type                                : Progressive
Bits/(Pixel*Frame)                       : 0.284
Stream size                              : 3.30 GiB (76%)
Writing library                          : x264 core 148 r2705 3f5ed56
Encoding settings                        : cabac=1 / ref=5 / deblock=1:0:0 / analyse=0x3:0x133 / me=umh / subme=7 / psy=1 / psy_rd=1.00:0.00 / mixed_ref=1 / me_range=16 / chroma_me=1 / trellis=2 / 8x8dct=1 / cqm=0 / deadzone=21,11 / fast_pskip=0 / chroma_qp_offset=-2 / threads=12 / lookahead_threads=2 / sliced_threads=0 / nr=0 / decimate=1 / interlaced=0 / bluray_compat=0 / constrained_intra=0 / bframes=3 / b_pyramid=2 / b_adapt=1 / b_bias=0 / direct=1 / weightb=1 / open_gop=0 / weightp=2 / keyint=250 / keyint_min=23 / scenecut=40 / intra_refresh=0 / rc_lookahead=40 / rc=2pass / mbtree=1 / bitrate=4670 / ratetol=1.0 / qcomp=0.60 / qpmin=0 / qpmax=69 / qpstep=4 / cplxblur=20.0 / qblur=0.5 / ip_ratio=1.40 / aq=1:1.00
Language                                 : English
Default                                  : Yes
Forced                                   : No

Audio
ID                                       : 2
Format                                   : DTS
Format/Info                              : Digital Theater Systems
Mode                                     : 16
Format settings, Endianness              : Big
Codec ID                                 : A_DTS
Duration                                 : 1 h 41 min
Bit rate mode                            : Constant
Bit rate                                 : 1 509 kb/s
Channel(s)                               : 6 channels
Channel positions                        : Front: L C R, Side: L R, LFE
Sampling rate                            : 48.0 kHz
Frame rate                               : 93.750 FPS (512 spf)
Bit depth                                : 24 bits
Compression mode                         : Lossy
Stream size                              : 1.07 GiB (24%)
Language                                 : English
Default                                  : Yes
Forced                                   : No

Menu
00:00:00.000                             : en:00:00:00.000
00:15:38.563                             : en:00:15:38.563
00:39:01.506                             : en:00:39:01.506
01:00:30.585                             : en:01:00:30.585
01:18:13.022                             : en:01:18:13.022
01:34:14.315                             : en:01:34:14.315

Скриншоты:



Все одноименные релизы в Клубе

Время раздачи: с 13:00 до 23:00
[NNMClub.to]_Rupture.2016.720p.mkv.torrent
 Торрент: Серебряная раздча  Зарегистрирован
 
Примагнититься
Free Leech
Зарегистрируйтесь и скачайте торрент!
22 KB
 Зарегистрирован:   06 Янв 2017 09:25:26
 Размер:   4,37 GB  (
 Рейтинг:    (Голосов: 2)
 Поблагодарили:   40
 Проверка:   Оформление проверено модератором 06 Янв 2017 09:26:07
Как cкачать  ·  Как раздать  ·  Правильно оформить  ·  Поднять ратио!  
Futur​eCraf​t​
Стаж: 9 мес. 13 дней
Сообщений: 22
Ratio: 37,776
18.45%
Откуда: Санкт​-Пете​рбург​
russia.gif
Жалко без перевода. Хочется фильм с переводом.
rodin​oleg2​003​
Стаж: 2 года 1 мес.
Сообщений: 9
Ratio: 3,121
0%
только не хихидок)))
b00ker
Библиотекарь клуба
 
Стаж: 7 лет 6 мес.
Сообщений: 1146
Ratio: 43,843
Поблагодарили: 14155
80.32%
jamaica.gif
FutureCraft писал(а): Перейти к сообщению
Жалко без перевода. Хочется фильм с переводом.

https://nnmclub.to/forum/viewtopic.php?t=1080944

_________________
mediaholic casual
удаленные раздачи не возобновляю, сорри. только свои и текущие
DrMad​fishe​r2​
Стаж: 1 год 9 мес.
Сообщений: 152
Ratio: 10,656
7.26%
музобоз, с рекламой! Совсем не вариант
LordSin
Стаж: 7 лет 2 мес.
Сообщений: 253
Ratio: 1,019
4.2%
С русс сабами посмотреть бы
Показать сообщения:   
Начать новую тему   Ответить на тему    Торрент-трекер NNM-Club -> Зарубежное кино -> Фильмы в оригинале (HD) Часовой пояс: GMT + 3
Страница 1 из 1