Интеллигентный торрент-трекер
canvas not supported
Нас вместе: 4 301 673

Хорошие дети / Good Kids (2016) BDRip [H.264/1080p] [EN / Sw, Da, Fin, No Sub]


 
 
RSS
Начать новую тему   Ответить на тему    Торрент-трекер NNM-Club -> Зарубежное кино -> Фильмы в оригинале (HD)
Автор Сообщение
smaster67 ®
Модератор Видео
Покровитель талантов Uploader 300+
Стаж: 7 лет 8 мес.
Сообщений: 6580
Ratio: 192,163
Поблагодарили: 189550
100%
Хорошие дети / Good Kids (2016) BDRip [H.264/1080p] [EN / Sw, Da, Fin, No Sub]

Производство: США
Жанр: комедия

Режиссер: Крис МакКой
Актеры: Зои Дойч, Эшли Джадд, Вирджиния Гарднер, Джулия Гарнер, Николас Браун, Израэль Бруссар, Демиан Бишир, Стефани Фантоцци, Джон Ротмен, Кевин Чэпмен, Рэнди Кутюр, Матео Ариас

Описание:
В центре внимания оказываются сразу четыре выпускника старшей школы. Каждый из них на хорошем счету в данном заведении, поскольку они все эти годы отличались отличной учебой и прилежным поведением. Конечно же, каждый выпускник всегда думает, что после выпуска его ожидает новая взрослая жизнь, в которой все будет идти как по маслу.
Но как они глубоко ошибаются. Совсем скоро ребята начнут понимать, что они никому в этой взрослой жизни не нужны и им приходится рассчитывать только на себя и собственные силы. Даже самым умным ученикам не так просто по жизни устроить карьеру и личную жизнь, а что уж говорить о других. Главные герои совместными усилиями будут плодотворно и тщательно изучать правду жизни, но на их пути ожидается много проблем.



Продолжительность: 01:29:27
Качество видео: BDRip
Перевод: Отсутствует
Язык озвучки: Английский
Язык субтитров: шведский, датский, финский, норвежский
Вид субтитров: Вшитые

Видео: AVC, 1920x808 (2.40:1), 8985 kbps, 23,976 fps, 0,242 bpp
Аудио: английский / DTS / 5.1 / 48 kHz / 1509 kbps / 24 bit
Код: выделить все
General
Unique ID                               Good Kids.2016.1080p.mkv
Format                                   : Matroska
Format version                           : Version 4 / Version 2
File size                                : 6.57 GiB
Duration                                 : 1 h 29 min
Overall bit rate                         : 10.5 Mb/s
Encoded date                             : UTC 2017-01-06 07:07:52
Writing application                      : mkvmerge v7.5.0 ('Glass Culture') 64bit built on Jan  4 2015 16:48:44
Writing library                          : libebml v1.3.1 + libmatroska v1.4.2

Video
ID                                       : 1
Format                                   : AVC
Format/Info                              : Advanced Video Codec
Format profile                           : High@L4.1
Format settings, CABAC                   : Yes
Format settings, ReFrames                : 5 frames
Codec ID                                 : V_MPEG4/ISO/AVC
Duration                                 : 1 h 29 min
Bit rate                                 : 8 985 kb/s
Width                                    : 1 920 pixels
Height                                   : 808 pixels
Display aspect ratio                     : 2.40:1
Frame rate mode                          : Constant
Frame rate                               : 23.976 (24000/1001) FPS
Color space                              : YUV
Chroma subsampling                       : 4:2:0
Bit depth                                : 8 bits
Scan type                                : Progressive
Bits/(Pixel*Frame)                       : 0.242
Stream size                              : 5.61 GiB (85%)
Writing library                          : x264 core 148 r2744kMod b97ae06
Encoding settings                        : cabac=1 / ref=5 / deblock=1:0:0 / analyse=0x3:0x133 / me=umh / subme=7 / psy=1 / fade_compensate=0.00 / psy_rd=1.00:0.00 / mixed_ref=1 / me_range=16 / chroma_me=1 / trellis=2 / 8x8dct=1 / cqm=0 / deadzone=21,11 / fast_pskip=0 / chroma_qp_offset=-2 / threads=12 / lookahead_threads=2 / sliced_threads=0 / nr=0 / decimate=1 / interlaced=0 / bluray_compat=0 / constrained_intra=0 / bframes=3 / b_pyramid=2 / b_adapt=1 / b_bias=0 / direct=3 / weightb=1 / open_gop=0 / weightp=2 / keyint=250 / keyint_min=23 / scenecut=40 / intra_refresh=0 / rc_lookahead=50 / rc=2pass / mbtree=1 / bitrate=8985 / ratetol=1.0 / qcomp=0.60 / qpmin=0 / qpmax=69 / qpstep=4 / cplxblur=20.0 / qblur=0.5 / ip_ratio=1.40 / aq=1:1.00
Language                                 : English
Default                                  : Yes
Forced                                   : No

Audio
ID                                       : 2
Format                                   : DTS
Format/Info                              : Digital Theater Systems
Mode                                     : 16
Format settings, Endianness              : Big
Codec ID                                 : A_DTS
Duration                                 : 1 h 29 min
Bit rate mode                            : Constant
Bit rate                                 : 1 509 kb/s
Channel(s)                               : 6 channels
Channel positions                        : Front: L C R, Side: L R, LFE
Sampling rate                            : 48.0 kHz
Frame rate                               : 93.750 FPS (512 spf)
Bit depth                                : 24 bits
Compression mode                         : Lossy
Stream size                              : 966 MiB (14%)
Language                                 : English
Default                                  : Yes
Forced                                   : No

Text #1
ID                                       : 3
Format                                   : VobSub
Muxing mode                              : zlib
Codec ID                                 : S_VOBSUB
Codec ID/Info                            : Picture based subtitle format used on DVDs
Duration                                 : 1 h 28 min
Bit rate                                 : 4 058 b/s
Count of elements                        : 824
Stream size                              : 2.58 MiB (0%)
Language                                 : Swedish
Default                                  : Yes
Forced                                   : No

Text #2
ID                                       : 4
Format                                   : VobSub
Muxing mode                              : zlib
Codec ID                                 : S_VOBSUB
Codec ID/Info                            : Picture based subtitle format used on DVDs
Duration                                 : 1 h 28 min
Bit rate                                 : 4 029 b/s
Count of elements                        : 823
Stream size                              : 2.56 MiB (0%)
Language                                 : Danish
Default                                  : No
Forced                                   : No

Text #3
ID                                       : 5
Format                                   : VobSub
Muxing mode                              : zlib
Codec ID                                 : S_VOBSUB
Codec ID/Info                            : Picture based subtitle format used on DVDs
Duration                                 : 1 h 28 min
Bit rate                                 : 4 007 b/s
Count of elements                        : 823
Stream size                              : 2.54 MiB (0%)
Language                                 : Finnish
Default                                  : No
Forced                                   : No

Text #4
ID                                       : 6
Format                                   : VobSub
Muxing mode                              : zlib
Codec ID                                 : S_VOBSUB
Codec ID/Info                            : Picture based subtitle format used on DVDs
Duration                                 : 1 h 28 min
Bit rate                                 : 3 879 b/s
Count of elements                        : 823
Stream size                              : 2.46 MiB (0%)
Language                                 : Norwegian
Default                                  : No
Forced                                   : No

Скриншоты:



Все одноименные релизы в Клубе

Время раздачи: с 13:00 до 23:00
[NNMClub.to]_Good Kids.2016.1080p.mkv.torrent
 Торрент: Золотая раздача  Зарегистрирован
 
Примагнититься
Free Leech
Зарегистрируйтесь и скачайте торрент!
33 KB
 Зарегистрирован:   06 Янв 2017 10:17:58
 Размер:   6,57 GB  (
 Рейтинг:    (Голосов: 4)
 Поблагодарили:   36
 Проверка:   Оформление проверено модератором 06 Янв 2017 10:19:16
Как cкачать  ·  Как раздать  ·  Правильно оформить  ·  Поднять ратио!  
gapon​enko.​ao​
Стаж: 7 лет 2 мес.
Сообщений: 337
Ratio: 1,072
Поблагодарили: 2183
0.25%
Цитата:
Язык субтитров: шведский, датский, финский, норвежский

очень смшено
VityVity
Стаж: 5 лет
Сообщений: 17
Ratio: 5,653
0.19%
Приятный лёгкий фильм без тупых пошлостей ниже пояса, как это бывает по обыкновению, когда америкосы снимают о молодёжи. Вполне живая история про четверых друзей с некоторой долей юмора и оптимизма.
Почему до сих пор нет с переводом непонятно, но всё равно реализеру спасибо. Хоть послушал живые голоса актёров. Глубокими познаниями языка не отличаюсь, но ребята изучайте языки, никогда не будет лишним.
Показать сообщения:   
Начать новую тему   Ответить на тему    Торрент-трекер NNM-Club -> Зарубежное кино -> Фильмы в оригинале (HD) Часовой пояс: GMT + 3
Страница 1 из 1