Интеллигентный торрент-трекер
canvas not supported
Нас вместе: 4 197 171

Трансформация / Rupture (2016) BDRip [H.264/1080p] [EN]


 
 
RSS
Начать новую тему   Ответить на тему    Торрент-трекер NNM-Club -> Зарубежное кино -> Фильмы в оригинале (HD)
Автор Сообщение
smaster67 ®
Модератор Видео
Покровитель талантов Uploader 300+
Стаж: 7 лет 6 мес.
Сообщений: 6392
Ratio: 186,648
Поблагодарили: 180153
100%
Трансформация / Rupture (2016) BDRip [H.264/1080p] [EN]

Производство: США, Канада
Жанр: фантастика, триллер

Режиссер: Стивен Шейнберг
Актеры: Нуми Рапас, Петер Стормаре, Керри Бише, Майкл Чиклис, Лесли Мэнвилл, Серджо Ди Зио, Пол Попович, Эри Миллен, Перси Хайнс Уайт, Джин Юн, Морган Келли, Джоэль Лабелль

Описание:
Рене живет со своим 12-летним сыном в тихом районе на окраине города. Она страшно боится пауков. Однажды ее похищают незнакомцы, и она приходит в себя в лаборатории, где узнает, что она - уникальный обладатель генетической аномалии, которая может помочь ей трансформироваться в иную сущность, в монстра...



Продолжительность: 01:41:15
Качество видео: BDRip
Перевод: Отсутствует
Язык озвучки: Английский

Видео: AVC, 1920x808 (2.40:1), 9309 kbps, 23,976 fps, 0,250 bpp
Аудио: английский / DTS / 5.1 / 48 kHz / 1509 kbps / 24 bit
Код: выделить все
General
Unique ID                                Rupture.2016.1080p.mkv
Format                                   : Matroska
Format version                           : Version 4 / Version 2
File size                                : 7.65 GiB
Duration                                 : 1 h 41 min
Overall bit rate                         : 10.8 Mb/s
Encoded date                             : UTC 2017-01-05 20:44:40
Writing application                      : mkvmerge v8.3.0 ('Over the Horizon') 64bit
Writing library                          : libebml v1.3.1 + libmatroska v1.4.2

Video
ID                                       : 1
Format                                   : AVC
Format/Info                              : Advanced Video Codec
Format profile                           : High@L4.1
Format settings, CABAC                   : Yes
Format settings, ReFrames                : 5 frames
Codec ID                                 : V_MPEG4/ISO/AVC
Duration                                 : 1 h 41 min
Bit rate                                 : 9 309 kb/s
Width                                    : 1 920 pixels
Height                                   : 808 pixels
Display aspect ratio                     : 2.40:1
Frame rate mode                          : Constant
Frame rate                               : 23.976 FPS
Color space                              : YUV
Chroma subsampling                       : 4:2:0
Bit depth                                : 8 bits
Scan type                                : Progressive
Bits/(Pixel*Frame)                       : 0.250
Stream size                              : 6.59 GiB (86%)
Writing library                          : x264 core 148 r2744 b97ae06
Encoding settings                        : cabac=1 / ref=5 / deblock=1:0:0 / analyse=0x3:0x133 / me=umh / subme=7 / psy=1 / psy_rd=1.00:0.00 / mixed_ref=1 / me_range=16 / chroma_me=1 / trellis=2 / 8x8dct=1 / cqm=0 / deadzone=21,11 / fast_pskip=0 / chroma_qp_offset=-2 / threads=25 / lookahead_threads=4 / sliced_threads=0 / nr=0 / decimate=1 / interlaced=0 / bluray_compat=0 / constrained_intra=0 / bframes=3 / b_pyramid=2 / b_adapt=1 / b_bias=0 / direct=1 / weightb=1 / open_gop=0 / weightp=2 / keyint=250 / keyint_min=23 / scenecut=40 / intra_refresh=0 / rc_lookahead=40 / rc=2pass / mbtree=1 / bitrate=9309 / ratetol=1.0 / qcomp=0.60 / qpmin=0 / qpmax=69 / qpstep=4 / cplxblur=20.0 / qblur=0.5 / ip_ratio=1.40 / aq=1:1.00
Language                                 : English
Default                                  : Yes
Forced                                   : No

Audio
ID                                       : 2
Format                                   : DTS
Format/Info                              : Digital Theater Systems
Mode                                     : 16
Format settings, Endianness              : Big
Codec ID                                 : A_DTS
Duration                                 : 1 h 41 min
Bit rate mode                            : Constant
Bit rate                                 : 1 509 kb/s
Channel(s)                               : 6 channels
Channel positions                        : Front: L C R, Side: L R, LFE
Sampling rate                            : 48.0 kHz
Frame rate                               : 93.750 FPS (512 spf)
Bit depth                                : 24 bits
Compression mode                         : Lossy
Stream size                              : 1.07 GiB (14%)
Language                                 : English
Default                                  : Yes
Forced                                   : No

Menu
00:00:00.000                             : en:00:00:00.000
00:15:38.563                             : en:00:15:38.563
00:39:01.506                             : en:00:39:01.506
01:00:30.585                             : en:01:00:30.585
01:18:13.022                             : en:01:18:13.022
01:34:14.315                             : en:01:34:14.315

Скриншоты:



Все одноименные релизы в Клубе

Время раздачи: с 13:00 до 23:00
[NNMClub.to]_Rupture.2016.1080p.mkv.torrent
 Торрент: Золотая раздача  Зарегистрирован
 
Примагнититься
Free Leech
Зарегистрируйтесь и скачайте торрент!
38,5 KB
 Зарегистрирован:   06 Янв 2017 14:49:02
 Размер:   7,65 GB  (
 Рейтинг:    (Голосов: 3)
 Поблагодарили:   34
 Проверка:   Оформление проверено модератором 06 Янв 2017 14:49:15
Как cкачать  ·  Как раздать  ·  Правильно оформить  ·  Поднять ратио!  
KuROni
Стаж: 5 лет 5 мес.
Сообщений: 203
Ratio: 1,648
95.33%
russia.gif
Описание бредом попахивает
orvovan
Стаж: 5 лет 10 мес.
Сообщений: 32
Ratio: 13,748
9.45%
Откуда: оренбург
russia.gif
Ну , если фантастику называть бредом, тогда да.
air999
Стаж: 8 лет 8 мес.
Сообщений: 69
Ratio: 2,97
4.45%
так это же канадская фантастика
Показать сообщения:   
Начать новую тему   Ответить на тему    Торрент-трекер NNM-Club -> Зарубежное кино -> Фильмы в оригинале (HD) Часовой пояс: GMT + 3
Страница 1 из 1