Интеллигентный торрент-трекер
canvas not supported
Нас вместе: 4 301 780

Шпионы по соседству / Keeping Up with the Joneses (2016) BDRip [H.264/1080p] [EN / EN Sub]


 
 
RSS
Начать новую тему   Ответить на тему    Торрент-трекер NNM-Club -> Зарубежное кино -> Фильмы в оригинале (HD)
Автор Сообщение
smaster67 ®
Модератор Видео
Покровитель талантов Uploader 300+
Стаж: 7 лет 8 мес.
Сообщений: 6582
Ratio: 192,173
Поблагодарили: 189566
100%
Шпионы по соседству / Keeping Up with the Joneses (2016) BDRip [H.264/1080p] [EN / EN Sub]

Производство: США
Жанр: боевик, комедия

Режиссер: Грег Моттола
Актеры: Зак Галифианакис, Айла Фишер, Джон Хэмм, Галь Гадот, Пэттон Освальт, Минг Жао, Мэтт Уолш, Мэрибет Монро, Майкл Лью, Кевин Данн, Дайо Абаниканда, Генри Бостон

Описание:
Супружеская пара из пригорода оказывается втянутой в международный шпионский заговор, когда обнаруживает, что их, казалось бы, идеальные новые соседи являются правительственными агентами.



Продолжительность: 01:45:20
Качество видео: BDRip
Перевод: Отсутствует
Язык озвучки: Английский
Язык субтитров: английский
Вид субтитров: Вшитые

Видео: AVC, 1920x800 (2.40:1), 8890 kbps, 23,976 fps, 0,241 bpp
Аудио: английский / DTS / 7 ch / 48 kHz / 1509 kbps / 24 bit
Код: выделить все
General
Unique ID                                : 172261787326470057686354712161384455702 (0x819869D7C3FCE1BFAD951837BE6CDE16)
Complete name                            : D:\TD\Keeping.Up.With.The.Joneses.2016.1080p.mkv
Format                                   : Matroska
Format version                           : Version 4 / Version 2
File size                                : 7.66 GiB
Duration                                 : 1 h 45 min
Overall bit rate                         : 10.4 Mb/s
Encoded date                             : UTC 2017-01-06 12:15:11
Writing application                      : mkvmerge v7.5.0 ('Glass Culture') 64bit built on Jan  4 2015 16:48:44
Writing library                          : libebml v1.3.1 + libmatroska v1.4.2

Video
ID                                       : 1
Format                                   : AVC
Format/Info                              : Advanced Video Codec
Format profile                           : High@L4.1
Format settings, CABAC                   : Yes
Format settings, ReFrames                : 5 frames
Codec ID                                 : V_MPEG4/ISO/AVC
Duration                                 : 1 h 45 min
Bit rate                                 : 8 890 kb/s
Width                                    : 1 920 pixels
Height                                   : 800 pixels
Display aspect ratio                     : 2.40:1
Frame rate mode                          : Constant
Frame rate                               : 23.976 FPS
Color space                              : YUV
Chroma subsampling                       : 4:2:0
Bit depth                                : 8 bits
Scan type                                : Progressive
Bits/(Pixel*Frame)                       : 0.241
Stream size                              : 6.54 GiB (85%)
Writing library                          : x264 core 148 r2744 b97ae06
Encoding settings                        : cabac=1 / ref=5 / deblock=1:0:0 / analyse=0x3:0x133 / me=umh / subme=7 / psy=1 / psy_rd=1.00:0.00 / mixed_ref=1 / me_range=16 / chroma_me=1 / trellis=1 / 8x8dct=1 / cqm=0 / deadzone=21,11 / fast_pskip=0 / chroma_qp_offset=-2 / threads=25 / lookahead_threads=4 / sliced_threads=0 / nr=0 / decimate=1 / interlaced=0 / bluray_compat=0 / constrained_intra=0 / bframes=3 / b_pyramid=2 / b_adapt=1 / b_bias=0 / direct=1 / weightb=1 / open_gop=0 / weightp=2 / keyint=250 / keyint_min=23 / scenecut=40 / intra_refresh=0 / rc_lookahead=40 / rc=2pass / mbtree=1 / bitrate=8890 / ratetol=1.0 / qcomp=0.60 / qpmin=0 / qpmax=69 / qpstep=4 / cplxblur=20.0 / qblur=0.5 / ip_ratio=1.40 / aq=1:1.00
Language                                 : English
Default                                  : Yes
Forced                                   : No

Audio
ID                                       : 2
Format                                   : DTS
Format/Info                              : Digital Theater Systems
Format profile                           : ES Matrix / Core
Mode                                     : 16
Format settings, Endianness              : Big
Codec ID                                 : A_DTS
Duration                                 : 1 h 45 min
Bit rate mode                            : Constant
Bit rate                                 : 1 509 kb/s
Channel(s)                               : 7 channels / 6 channels
Channel positions                        : Front: L C R, Side: L R, Back: C, LFE / Front: L C R, Side: L R, LFE
Sampling rate                            : 48.0 kHz
Frame rate                               : 93.750 FPS (512 spf)
Bit depth                                : 24 bits
Compression mode                         : Lossy
Stream size                              : 1.11 GiB (15%)
Language                                 : English
Default                                  : Yes
Forced                                   : No

Text #1
ID                                       : 3
Format                                   : UTF-8
Codec ID                                 : S_TEXT/UTF8
Codec ID/Info                            : UTF-8 Plain Text
Duration                                 : 57 min
Bit rate                                 : 2 b/s
Count of elements                        : 29
Stream size                              : 1.01 KiB (0%)
Title                                    : English-Forced
Language                                 : English
Default                                  : Yes
Forced                                   : Yes

Text #2
ID                                       : 4
Format                                   : VobSub
Muxing mode                              : zlib
Codec ID                                 : S_VOBSUB
Codec ID/Info                            : Picture based subtitle format used on DVDs
Duration                                 : 1 h 40 min
Bit rate                                 : 9 647 b/s
Count of elements                        : 2119
Stream size                              : 6.95 MiB (0%)
Language                                 : English
Default                                  : No
Forced                                   : No

Text #3
ID                                       : 5
Format                                   : VobSub
Muxing mode                              : zlib
Codec ID                                 : S_VOBSUB
Codec ID/Info                            : Picture based subtitle format used on DVDs
Duration                                 : 16 s 678 ms
Bit rate                                 : 9 044 b/s
Count of elements                        : 5
Stream size                              : 18.4 KiB (0%)
Language                                 : English
Default                                  : No
Forced                                   : No

Menu
00:00:00.000                             : en:00:00:00.000
00:03:43.473                             : en:00:03:43.473
00:06:41.651                             : en:00:06:41.651
00:09:55.845                             : en:00:09:55.845
00:13:28.182                             : en:00:13:28.182
00:17:06.025                             : en:00:17:06.025
00:21:07.933                             : en:00:21:07.933
00:26:02.311                             : en:00:26:02.311
00:30:07.514                             : en:00:30:07.514
00:33:56.743                             : en:00:33:56.743
00:37:43.761                             : en:00:37:43.761
00:40:59.457                             : en:00:40:59.457
00:45:35.149                             : en:00:45:35.149
00:49:00.312                             : en:00:49:00.312
00:52:35.152                             : en:00:52:35.152
00:55:59.189                             : en:00:55:59.189
01:00:50.230                             : en:01:00:50.230
01:04:33.244                             : en:01:04:33.244
01:08:47.665                             : en:01:08:47.665
01:12:04.654                             : en:01:12:04.654
01:15:58.554                             : en:01:15:58.554
01:19:31.809                             : en:01:19:31.809
01:22:46.545                             : en:01:22:46.545
01:25:43.972                             : en:01:25:43.972
01:29:02.295                             : en:01:29:02.295
01:31:44.874                             : en:01:31:44.874
01:34:18.528                             : en:01:34:18.528
01:37:32.680                             : en:01:37:32.680

Скриншоты:



Все одноименные релизы в Клубе

Время раздачи: с 13:00 до 23:00
[NNMClub.to]_Keeping.Up.With.The.Joneses.2016.1080p.mkv.torrent
 Торрент: Золотая раздача  Зарегистрирован
 
Примагнититься
Free Leech
Зарегистрируйтесь и скачайте торрент!
38,5 KB
 Зарегистрирован:   06 Янв 2017 15:25:35
 Размер:   7,66 GB  (
 Рейтинг:    (Голосов: 5)
 Поблагодарили:   34
 Проверка:   Оформление проверено модератором 06 Янв 2017 15:26:29
Как cкачать  ·  Как раздать  ·  Правильно оформить  ·  Поднять ратио!  
Показать сообщения:   
Начать новую тему   Ответить на тему    Торрент-трекер NNM-Club -> Зарубежное кино -> Фильмы в оригинале (HD) Часовой пояс: GMT + 3
Страница 1 из 1