Интеллигентный торрент-трекер
canvas not supported
Нас вместе: 4 198 514

Зачинщики / Masterminds (2016) BDRip [H.264/720p] [EN / EN Sub]


 
 
RSS
Начать новую тему   Ответить на тему    Торрент-трекер NNM-Club -> Зарубежное кино -> Фильмы в оригинале (HD)
Автор Сообщение
smaster67 ®
Модератор Видео
Покровитель талантов Uploader 300+
Стаж: 7 лет 6 мес.
Сообщений: 6393
Ratio: 186,782
Поблагодарили: 180171
100%
Зачинщики / Masterminds (2016) BDRip [H.264/720p] [EN / EN Sub]

Производство: США
Жанр: боевик, комедия, криминал

Режиссер: Джаред Хесс
Актеры: Зак Галифианакис, Оуэн Уилсон, Кристен Уиг, Джейсон Судейкис, Кейт МакКиннон, Лесли Джонс, Мэри Элизабет Эллис, Кен Марино, Девин Рэтрей, Джон Дэйли, Рода Гриффис, Росс Кимбелл

Описание:
Бывший клерк банка вместе со своей любовницей проворачивает дерзкое ограбление инкассаторской машины и забирает 17 миллионов баксов. Но по неопытности преступники-дебютанты оставляют на месте преступления столько следов и улик, что вряд ли смогут получить удовольствие от добычи.



Продолжительность: 01:34:38
Качество видео: BDRip
Перевод: Отсутствует
Язык озвучки: Английский
Язык субтитров: английский
Вид субтитров: Вшитые

Видео: AVC, 1280x720 (16:9), 5100 kbps, 23,976 fps, 0,231 bpp
Аудио: английский / DTS / 5.1 / 48 kHz / 1509 kbps / 24 bit
Код: выделить все
General
Unique ID                                : 0 (0x0)
Complete name                           Masterminds.2016.720p.mkv
Format                                   : Matroska
Format version                           : Version 4 / Version 2
File size                                : 4.37 GiB
Duration                                 : 1 h 34 min
Overall bit rate                         : 6 611 kb/s
Encoded date                             : UTC 2010-02-22 21:41:29
Writing application                      : no_variable_data
Writing library                          : no_variable_data

Video
ID                                       : 1
Format                                   : AVC
Format/Info                              : Advanced Video Codec
Format profile                           : High@L4.1
Format settings, CABAC                   : Yes
Format settings, ReFrames                : 5 frames
Codec ID                                 : V_MPEG4/ISO/AVC
Duration                                 : 1 h 34 min
Bit rate                                 : 5 100 kb/s
Width                                    : 1 280 pixels
Height                                   : 720 pixels
Display aspect ratio                     : 16:9
Frame rate mode                          : Constant
Frame rate                               : 23.976 (24000/1001) FPS
Color space                              : YUV
Chroma subsampling                       : 4:2:0
Bit depth                                : 8 bits
Scan type                                : Progressive
Bits/(Pixel*Frame)                       : 0.231
Stream size                              : 3.29 GiB (75%)
Writing library                          : x264 core 148 r2744 b97ae06
Encoding settings                        : cabac=1 / ref=5 / deblock=1:-3:-3 / analyse=0x3:0x113 / me=umh / subme=8 / psy=1 / psy_rd=1.00:0.00 / mixed_ref=1 / me_range=16 / chroma_me=1 / trellis=1 / 8x8dct=1 / cqm=0 / deadzone=21,11 / fast_pskip=1 / chroma_qp_offset=-2 / threads=6 / lookahead_threads=1 / sliced_threads=0 / nr=0 / decimate=1 / interlaced=0 / bluray_compat=0 / constrained_intra=0 / bframes=3 / b_pyramid=2 / b_adapt=2 / b_bias=0 / direct=3 / weightb=1 / open_gop=0 / weightp=2 / keyint=240 / keyint_min=24 / scenecut=40 / intra_refresh=0 / rc_lookahead=50 / rc=2pass / mbtree=1 / bitrate=5100 / ratetol=1.0 / qcomp=0.60 / qpmin=0 / qpmax=69 / qpstep=4 / cplxblur=20.0 / qblur=0.5 / ip_ratio=1.40 / aq=3:0.80
Default                                  : Yes
Forced                                   : No
Statistics Tags Issue                    : no_variable_data 1970-01-01 00:00:00 / no_variable_data 2010-02-22 21:41:29
FromStats_BitRate                        : 5099829
FromStats_Duration                       : 01:34:38.673000000
FromStats_FrameCount                     : 136152
FromStats_StreamSize                     : 3620032680

Audio
ID                                       : 2
Format                                   : DTS
Format/Info                              : Digital Theater Systems
Mode                                     : 16
Format settings, Endianness              : Big
Codec ID                                 : A_DTS
Duration                                 : 1 h 34 min
Bit rate mode                            : Constant
Bit rate                                 : 1 509 kb/s
Channel(s)                               : 6 channels
Channel positions                        : Front: L C R, Side: L R, LFE
Sampling rate                            : 48.0 kHz
Frame rate                               : 93.750 FPS (512 spf)
Bit depth                                : 24 bits
Compression mode                         : Lossy
Stream size                              : 1 022 MiB (23%)
Language                                 : English
Default                                  : Yes
Forced                                   : No
Statistics Tags Issue                    : no_variable_data 1970-01-01 00:00:00 / no_variable_data 2010-02-22 21:41:29
FromStats_BitRate                        : 1508999
FromStats_Duration                       : 01:34:38.667000000
FromStats_FrameCount                     : 532375
FromStats_StreamSize                     : 1071138500

Text #1
ID                                       : 3
Format                                   : UTF-8
Codec ID                                 : S_TEXT/UTF8
Codec ID/Info                            : UTF-8 Plain Text
Language                                 : English
Default                                  : No
Forced                                   : No
Statistics Tags Issue                    : no_variable_data 1970-01-01 00:00:00 / no_variable_data 2010-02-22 21:41:29
FromStats_BitRate                        : 76
FromStats_Duration                       : 01:28:36.436000000
FromStats_FrameCount                     : 1437
FromStats_StreamSize                     : 50552

Text #2
ID                                       : 4
Format                                   : UTF-8
Codec ID                                 : S_TEXT/UTF8
Codec ID/Info                            : UTF-8 Plain Text
Title                                    : SDH
Language                                 : English
Default                                  : No
Forced                                   : No
Statistics Tags Issue                    : no_variable_data 1970-01-01 00:00:00 / no_variable_data 2010-02-22 21:41:29
FromStats_BitRate                        : 79
FromStats_Duration                       : 01:33:35.026000000
FromStats_FrameCount                     : 1615
FromStats_StreamSize                     : 55585

Menu
00:00:00.000                             : en:00:00:00.000
00:06:37.188                             : en:00:06:37.188
00:10:15.240                             : en:00:10:15.240
00:16:56.432                             : en:00:16:56.432
00:28:08.353                             : en:00:28:08.353
00:31:30.138                             : en:00:31:30.138
00:37:39.716                             : en:00:37:39.716
00:45:28.476                             : en:00:45:28.476
00:50:03.167                             : en:00:50:03.167
00:57:30.906                             : en:00:57:30.906
01:02:59.609                             : en:01:02:59.609
01:07:59.158                             : en:01:07:59.158
01:14:12.782                             : en:01:14:12.782
01:20:20.024                             : en:01:20:20.024
01:23:22.581                             : en:01:23:22.581
01:27:25.657                             : en:01:27:25.657

Скриншоты:



Все одноименные релизы в Клубе

Время раздачи: с 13:00 до 23:00
[NNMClub.to]_Masterminds.2016.720p.mkv.torrent
 Торрент: Серебряная раздча  Зарегистрирован
 
Примагнититься
Free Leech
Зарегистрируйтесь и скачайте торрент!
22 KB
 Зарегистрирован:   06 Янв 2017 17:59:06
 Размер:   4,37 GB  (
 Рейтинг:    (Голосов: 9)
 Поблагодарили:   55
 Проверка:   Оформление проверено модератором 06 Янв 2017 18:00:18
Как cкачать  ·  Как раздать  ·  Правильно оформить  ·  Поднять ратио!  
Показать сообщения:   
Начать новую тему   Ответить на тему    Торрент-трекер NNM-Club -> Зарубежное кино -> Фильмы в оригинале (HD) Часовой пояс: GMT + 3
Страница 1 из 1