Интеллигентный торрент-трекер
canvas not supported
Нас вместе: 4 310 451

Свет в океане / The Light Between Oceans (2016) BDRip [H.264/1080p]


 
 
RSS
Начать новую тему   Эта тема закрыта, вы не можете писать ответы и редактировать сообщения.    Торрент-трекер NNM-Club -> Архив торрентов -> Архив Видео
Автор Сообщение
VarMkn ®

Online
Стаж: 4 года 11 мес.
Сообщений: 1375
Ratio: 342,845
Поблагодарили: 131177
100%
Откуда: Kiev, Ukraine
ukraine.gif
Свет в океане / The Light Between Oceans (2016) BDRip [H.264/1080p]

Производство: Великобритания, Новая Зеландия, США - Amblin Entertainment, DreamWorks SKG
Жанр: Драма, мелодрама

Режиссер: Дерек Сиенфрэнс
Актеры: Майкл Фассбендер, Алисия Викандер, Рэйчел Вайс, Флоренс Клери, Джек Томпсон, Томас Унгер, Джейн Менелос, Гарри МакДональд, Энтони Хэйес, Бенедикт Харди, Эмили Барклай, Брайан Браун

Описание:
Вернувшийся с войны смотритель маяка Том встречает трепетную девушку по имени Изабель. Зародившаяся между ними любовь полностью преображает Изабель и возвращает опустошенному Тому веру в жизнь. Молодожены поселяются на уединенном острове, к берегу которого однажды пристает лодка с новорожденной девочкой. Супруги решают воспитать младенца как родную дочь, не представляя, насколько разрушительными будут последствия этого выбора.


Возраст: 16+ (зрителям, достигшим 16 лет)
Рейтинг MPAA: PG-13 (детям до 13 лет просмотр нежелателен)

Перевод: Дублированный |iTunes Russia|
Субтитры: Вшитые, отключаемые
Язык субтитров: Русский, английский

Продолжительность: 02:12:51
Качество видео: BDRip

Видео: AVC/H.264, 9093 Кбит/с, 1920x800, 23.976 кадр/с
Аудио #1: AC3, 5.1, 384 Кбит/с, 48kHz - Русский
Аудио #2: DTS, 5.1, 1536 Кбит/с, 48 kHz, 24 bit - Английский
Код: выделить все
General
Unique ID                                : 252950016111435594067118655233636193183 (0xBE4C66AAF72383A0807FAE22F50C539F)
Complete name                            : D:\Torrent Video\The.Light.Between.Oceans.2016.BDRip.1080p.mkv
Format                                   : Matroska
Format version                           : Version 4 / Version 2
File size                                : 10.2 GiB
Duration                                 : 2 h 12 min
Overall bit rate                         : 11.0 Mb/s
Encoded date                             : UTC 2017-01-06 11:01:24
Writing application                      : mkvmerge v8.3.0 ('Over the Horizon') 64bit
Writing library                          : libebml v1.3.1 + libmatroska v1.4.2

Video
ID                                       : 1
Format                                   : AVC
Format/Info                              : Advanced Video Codec
Format profile                           : High@L4.1
Format settings, CABAC                   : Yes
Format settings, ReFrames                : 5 frames
Codec ID                                 : V_MPEG4/ISO/AVC
Duration                                 : 2 h 12 min
Bit rate                                 : 9 093 kb/s
Width                                    : 1 920 pixels
Height                                   : 800 pixels
Display aspect ratio                     : 2.40:1
Frame rate mode                          : Constant
Frame rate                               : 23.976 FPS
Color space                              : YUV
Chroma subsampling                       : 4:2:0
Bit depth                                : 8 bits
Scan type                                : Progressive
Bits/(Pixel*Frame)                       : 0.247
Stream size                              : 8.43 GiB (83%)
Writing library                          : x264 core 148 r2705 3f5ed56
Encoding settings                        : cabac=1 / ref=5 / deblock=1:0:0 / analyse=0x3:0x133 / me=umh / subme=7 / psy=1 / psy_rd=1.00:0.00 / mixed_ref=1 / me_range=16 / chroma_me=1 / trellis=1 / 8x8dct=1 / cqm=0 / deadzone=21,11 / fast_pskip=0 / chroma_qp_offset=-2 / threads=24 / lookahead_threads=4 / sliced_threads=0 / nr=0 / decimate=1 / interlaced=0 / bluray_compat=0 / constrained_intra=0 / bframes=3 / b_pyramid=2 / b_adapt=1 / b_bias=0 / direct=1 / weightb=1 / open_gop=0 / weightp=2 / keyint=250 / keyint_min=23 / scenecut=40 / intra_refresh=0 / rc_lookahead=40 / rc=2pass / mbtree=1 / bitrate=9093 / ratetol=1.0 / qcomp=0.60 / qpmin=0 / qpmax=69 / qpstep=4 / cplxblur=20.0 / qblur=0.5 / ip_ratio=1.40 / aq=1:1.00
Language                                 : English
Default                                  : Yes
Forced                                   : No

Audio #1
ID                                       : 2
Format                                   : AC-3
Format/Info                              : Audio Coding 3
Mode extension                           : CM (complete main)
Format settings, Endianness              : Big
Codec ID                                 : A_AC3
Duration                                 : 2 h 12 min
Bit rate mode                            : Constant
Bit rate                                 : 384 kb/s
Channel(s)                               : 6 channels
Channel positions                        : Front: L C R, Side: L R, LFE
Sampling rate                            : 48.0 kHz
Frame rate                               : 31.250 FPS (1536 spf)
Bit depth                                : 16 bits
Compression mode                         : Lossy
Stream size                              : 365 MiB (3%)
Language                                 : Russian
Default                                  : Yes
Forced                                   : No

Audio #2
ID                                       : 3
Format                                   : DTS
Format/Info                              : Digital Theater Systems
Mode                                     : 16
Format settings, Endianness              : Big
Codec ID                                 : A_DTS
Duration                                 : 2 h 12 min
Bit rate mode                            : Constant
Bit rate                                 : 1 509 kb/s
Channel(s)                               : 6 channels
Channel positions                        : Front: L C R, Side: L R, LFE
Sampling rate                            : 48.0 kHz
Frame rate                               : 93.750 FPS (512 spf)
Bit depth                                : 24 bits
Compression mode                         : Lossy
Stream size                              : 1.40 GiB (14%)
Language                                 : English
Default                                  : No
Forced                                   : No

Text #1
ID                                       : 4
Format                                   : UTF-8
Codec ID                                 : S_TEXT/UTF8
Codec ID/Info                            : UTF-8 Plain Text
Duration                                 : 31 min 28 s
Bit rate                                 : 2 b/s
Count of elements                        : 6
Stream size                              : 489 Bytes (0%)
Title                                    : Forced [iTunes]
Language                                 : Russian
Default                                  : Yes
Forced                                   : No

Text #2
ID                                       : 5
Format                                   : UTF-8
Codec ID                                 : S_TEXT/UTF8
Codec ID/Info                            : UTF-8 Plain Text
Duration                                 : 2 h 5 min
Bit rate                                 : 62 b/s
Count of elements                        : 1293
Stream size                              : 57.0 KiB (0%)
Title                                    : Full [iTunes]
Language                                 : Russian
Default                                  : No
Forced                                   : No

Text #3
ID                                       : 6
Format                                   : UTF-8
Codec ID                                 : S_TEXT/UTF8
Codec ID/Info                            : UTF-8 Plain Text
Duration                                 : 2 h 6 min
Bit rate                                 : 47 b/s
Count of elements                        : 1634
Stream size                              : 44.1 KiB (0%)
Language                                 : English
Default                                  : No
Forced                                   : No

Menu
00:00:00.000                             : en:00:00:00.000
00:04:55.128                             : en:00:04:55.128
00:11:38.531                             : en:00:11:38.531
00:17:30.007                             : en:00:17:30.007
00:23:07.469                             : en:00:23:07.469
00:29:35.816                             : en:00:29:35.816
00:35:21.953                             : en:00:35:21.953
00:42:35.678                             : en:00:42:35.678
00:49:51.822                             : en:00:49:51.822
00:55:14.186                             : en:00:55:14.186
00:59:26.062                             : en:00:59:26.062
01:05:48.027                             : en:01:05:48.027
01:10:52.957                             : en:01:10:52.957
01:13:14.724                             : en:01:13:14.724
01:22:34.032                             : en:01:22:34.032
01:31:42.956                             : en:01:31:42.956
01:42:29.101                             : en:01:42:29.101
01:51:31.018                             : en:01:51:31.018
02:01:29.324                             : en:02:01:29.324
02:07:08.621                             : en:02:07:08.621
Скриншоты:


Все одноименные релизы в Клубе

Время раздачи: с 13:00 до 23:00
[NNMClub.to]_The.Light.Between.Oceans.2016.BDRip.1080p.mkv.torrent
 Торрент:   Зарегистрирован
 
Примагнититься
Free Leech
Зарегистрируйтесь и скачайте торрент!
25,9 KB
 Зарегистрирован:   06 Янв 2017 22:25:15
 Размер:   10,2 GB  (
 Рейтинг:   4,9 (Голосов: 14)
 Поблагодарили:   89
 Проверка:   Оформление проверено модератором 12 Янв 2017 12:58:03
Как cкачать  ·  Как раздать  ·  Правильно оформить  ·  Поднять ратио!  
Full HD Video
RG Releasers
Uploader 100+
 
Стаж: 6 лет
Сообщений: 4923
Ratio: 1096,952
Раздал: 172 TB
Поблагодарили: 628348
100%
Откуда: Из мира кино.
nnm-club.gif
Сцен-рип.
Вот нормальный рип > Свет в океане / The Light Between Oceans (2016) BDRip [H.264/1080p]
Показать сообщения:   
Начать новую тему   Эта тема закрыта, вы не можете писать ответы и редактировать сообщения.    Торрент-трекер NNM-Club -> Архив торрентов -> Архив Видео Часовой пояс: GMT + 3
Страница 1 из 1