Интеллигентный торрент-трекер
canvas not supported
Нас вместе: 4 338 254

Свет в океане / The Light Between Oceans (2016) BDRip [H.264/720p]


 
 
RSS
Начать новую тему   Ответить на тему    Торрент-трекер NNM-Club -> Архив торрентов -> Архив Видео
Автор Сообщение
batonchik ®
Зам. Куратора Видео
RG Releasers
Котоаплоадер 4000+
 
Стаж: 9 лет 1 мес.
Сообщений: 23416
Ratio: 216K
Раздал: 4,8187 PB
Поблагодарили: 818127
100%
Откуда: из лесу
ussr.gif
Свет в океане / The Light Between Oceans (2016) BDRip [H.264/720p]

Производство: Великобритания, Новая Зеландия, США - Amblin Entertainment
Жанр: Драма, мелодрама

Режиссер: Дерек Сиенфрэнс
Актеры: Майкл Фассбендер, Алисия Викандер, Рэйчел Вайс, Флоренс Клери, Джек Томпсон, Томас Унгер, Джейн Менелос, Гарри МакДональд, Энтони Хэйес, Бенедикт Харди, Эмили Барклай, Брайан Браун

Описание:
Вернувшийся с войны смотритель маяка Том встречает трепетную девушку по имени Изабель. Зародившаяся между ними любовь полностью преображает Изабель и возвращает опустошенному Тому веру в жизнь. Молодожены поселяются на уединенном острове, к берегу которого однажды пристает лодка с новорожденной девочкой. Супруги решают воспитать младенца как родную дочь, не представляя, насколько разрушительными будут последствия этого выбора.



Релиз от: NNMClub
Продолжительность: 02:12:51
Качество видео: BDRip
Перевод: Дублированный (iTunes Russia)
Субтитры: Вшитые, отключаемые
Язык субтитров: Русский, английский

Видео: AVC, 1280x536 (2.40:1), 5557 kbps
Аудио 1: AC3, 5.1, 384 kbps, 48kHz | Русский
Аудио 2: DTS, 5.1, 1536 kbps, 48 kHz | Английский
Код: выделить все
Общее
Полное имя                               :\Свет в океане_The Light Between Oceans.2016.BDRip.720p.NNMClub.mkv
Формат                                   : Matroska
Версия формата                           : Version 2
Размер файла                             : 6,91 Гбайт
Продолжительность                        : 2 ч. 12 м.
Общий поток                              : 7451 Кбит/сек
Название фильма                          : Свет в океане_The Light Between Oceans.2016.BDRip.720p.NNMClub
Дата кодирования                         : UTC 2017-01-06 21:23:15
Программа кодирования                    : mkvmerge v7.7.0 ('Six Voices') 64bit built on Feb 28 2015 23:39:33
Библиотека кодирования                   : libebml v1.3.1 + libmatroska v1.4.2

Видео
Идентификатор                            : 1
Формат                                   : AVC
Формат/Информация                        : Advanced Video Codec
Профиль формата                          : High@L4.1
Параметр CABAC формата                   : Да
Параметр ReFrames формата                : 5 кадров
Идентификатор кодека                     : V_MPEG4/ISO/AVC
Продолжительность                        : 2 ч. 12 м.
Битрейт                                  : 5557 Кбит/сек
Ширина                                   : 1280 пикселей
Высота                                   : 536 пикселей
Соотношение сторон                       : 2,40:1
Режим частоты кадров                     : Постоянный
Частота кадров                           : 23,976 кадра/сек
Цветовое пространство                    : YUV
Субдискретизация насыщенности            : 4:2:0
Битовая глубина                          : 8 бит
Тип развёртки                            : Прогрессивная
Бит/(Пиксели*Кадры)                      : 0.338
Размер потока                            : 5,02 Гбайт (73%)
Заголовок                                : Свет в океане_The Light Between Oceans.2016.BDRip.720p.NNMClub
Библиотека кодирования                   : x264 core 148 r2705 3f5ed56
Настройки программы                      : cabac=1 / ref=5 / deblock=1:0:0 / analyse=0x3:0x133 / me=umh / subme=7 / psy=1 / psy_rd=1.00:0.00 / mixed_ref=1 / me_range=16 / chroma_me=1 / trellis=2 / 8x8dct=1 / cqm=0 / deadzone=21,11 / fast_pskip=0 / chroma_qp_offset=-2 / threads=12 / lookahead_threads=2 / sliced_threads=0 / nr=0 / decimate=1 / interlaced=0 / bluray_compat=0 / constrained_intra=0 / bframes=3 / b_pyramid=2 / b_adapt=1 / b_bias=0 / direct=1 / weightb=1 / open_gop=0 / weightp=2 / keyint=250 / keyint_min=23 / scenecut=40 / intra_refresh=0 / rc_lookahead=40 / rc=2pass / mbtree=1 / bitrate=5557 / ratetol=1.0 / qcomp=0.60 / qpmin=0 / qpmax=69 / qpstep=4 / cplxblur=20.0 / qblur=0.5 / ip_ratio=1.40 / aq=1:1.00
Язык                                     : English
Default                                  : Да
Forced                                   : Нет

Аудио #1
Идентификатор                            : 2
Формат                                   : AC-3
Формат/Информация                        : Audio Coding 3
Расширение режима                        : CM (complete main)
Параметр Endianness формата              : Big
Идентификатор кодека                     : A_AC3
Продолжительность                        : 2 ч. 12 м.
Вид битрейта                             : Постоянный
Битрейт                                  : 384 Кбит/сек
Каналы                                   : 6 каналов
Расположение каналов                     : Front: L C R, Side: L R, LFE
Частота                                  : 48,0 КГц
Частота кадров                           : 31,250 кадров/сек (1536 spf)
Битовая глубина                          : 16 бит
Метод сжатия                             : С потерями
Размер потока                            : 365 Мбайт (5%)
Заголовок                                : Дублированный (iTunes)
Язык                                     : Russian
Default                                  : Да
Forced                                   : Нет

Аудио #2
Идентификатор                            : 3
Формат                                   : DTS
Формат/Информация                        : Digital Theater Systems
Режим                                    : 16
Параметр Endianness формата              : Big
Идентификатор кодека                     : A_DTS
Продолжительность                        : 2 ч. 12 м.
Вид битрейта                             : Постоянный
Битрейт                                  : 1509 Кбит/сек
Каналы                                   : 6 каналов
Расположение каналов                     : Front: L C R, Side: L R, LFE
Частота                                  : 48,0 КГц
Частота кадров                           : 93,750 кадра/сек (512 spf)
Битовая глубина                          : 24 бит
Метод сжатия                             : С потерями
Размер потока                            : 1,40 Гбайт (20%)
Язык                                     : English
Default                                  : Нет
Forced                                   : Нет

Текст #1
Идентификатор                            : 4
Формат                                   : UTF-8
Идентификатор кодека                     : S_TEXT/UTF8
Идентификатор кодека/Информация          : UTF-8 Plain Text
Заголовок                                : Форс.
Язык                                     : Russian
Default                                  : Да
Forced                                   : Нет

Текст #2
Идентификатор                            : 5
Формат                                   : UTF-8
Идентификатор кодека                     : S_TEXT/UTF8
Идентификатор кодека/Информация          : UTF-8 Plain Text
Язык                                     : Russian
Default                                  : Нет
Forced                                   : Нет

Текст #3
Идентификатор                            : 6
Формат                                   : UTF-8
Идентификатор кодека                     : S_TEXT/UTF8
Идентификатор кодека/Информация          : UTF-8 Plain Text
Язык                                     : English
Default                                  : Нет
Forced                                   : Нет

Меню
00:00:00.000                             : en:00:00:00.000
00:04:55.128                             : en:00:04:55.128
00:11:38.531                             : en:00:11:38.531
00:17:30.007                             : en:00:17:30.007
00:23:07.469                             : en:00:23:07.469
00:29:35.816                             : en:00:29:35.816
00:35:21.953                             : en:00:35:21.953
00:42:35.678                             : en:00:42:35.678
00:49:51.822                             : en:00:49:51.822
00:55:14.186                             : en:00:55:14.186
00:59:26.062                             : en:00:59:26.062
01:05:48.027                             : en:01:05:48.027
01:10:52.957                             : en:01:10:52.957
01:13:14.724                             : en:01:13:14.724
01:22:34.032                             : en:01:22:34.032
01:31:42.956                             : en:01:31:42.956
01:42:29.101                             : en:01:42:29.101
01:51:31.018                             : en:01:51:31.018
02:01:29.324                             : en:02:01:29.324
02:07:08.621                             : en:02:07:08.621
Скриншоты:


Все одноименные релизы в Клубе

Время раздачи: 24/7
Svet v okeane_The Light Between Oceans.2016.BDRip.720p.NNMClub.mkv.torrent
 Торрент: Платиновая раздача  Зарегистрирован
 
Примагнититься

Скачать
 Зарегистрирован:   07 Янв 2017 00:30:13
 Размер:   6,91 GB  (
 Рейтинг:   4,7 (Голосов: 33)
 Поблагодарили:   142
 Проверка:   Оформление проверено модератором 07 Янв 2017 00:33:32
Как cкачать  ·  Как раздать  ·  Правильно оформить  ·  Поднять ратио!  
Загрузка...
wazzin
Стаж: 5 лет 2 мес.
Сообщений: 8
Ratio: 3,757
0.2%
В очередной раз эксплуатируют тему несчастного материнства. Снято неплохо, но оба героя безвольные недоумки. Это моё мнение
HARVE​STER6​66999​
Стаж: 6 лет 8 мес.
Сообщений: 308
Ratio: 21,643
0.86%
russia.gif
wazzin писал(а): Перейти к сообщению
В очередной раз эксплуатируют тему несчастного материнства. Снято неплохо, но оба героя безвольные недоумки. Это моё мнение

и это главное.
bag
Стаж: 10 лет 1 мес.
Сообщений: 281
Ratio: 3,715
Раздал: 13,86 TB
Поблагодарили: 14
100%
Откуда: Russia
russia.gif
Отличный фильм, тяжелый, но интересный.
torrent20
Стаж: 7 лет 11 мес.
Сообщений: 62
Ratio: 9,567
100%
russia.gif
Ассасин крид дома.
Darth138
Стаж: 6 лет 9 мес.
Сообщений: 35
Ratio: 4,442
0%
ukraine.gif
Хорошее кинцо,но школота пусть проходит мимо......
Топик был перенесен из форума Новинки (HD) в форум Архив Видео

Причина переноса: https://nnmclub.to/forum/viewtopic.php?t=1092670 сцен-рип.

Исправил релиз - напиши ЛС Full HD Video, дав ссылку на релиз.
Если нет ответа 24 часа - нажми на кнопку "Обратить внимание модераторов".
Показать сообщения:   
Начать новую тему   Ответить на тему    Торрент-трекер NNM-Club -> Архив торрентов -> Архив Видео Часовой пояс: GMT + 3
Страница 1 из 1

День смеха и юмора отмечается 1 апреля. В этот день принято шутить и разыгрывать друзей, коллег по работе, домашних, словом всех, с кем Вам предстоит увидеться в этот праздник – первое апреля. Первоапрельские розыгрыши, приколы на 1 апреля, первоапрельские шутки должны быть веселыми и безобидными. Приколы на 1 апреля, как правило, удаются в том случае, если человек забыл какой сегодня месяц и день, словом, забыл про 1 апреля – день смеха, шуток, день дурака.

Желаем Вам много улыбок и хорошего настроения в этот день!
С Уважением, администрация NNM-Club :)