Интеллигентный торрент-трекер
canvas not supported
Нас вместе: 4 332 495

Девушка в поезде / The Girl on the Train (2016) BDRemux [H.264/1080p] [EN / EN, Fr, Sp Sub]


 
 
RSS
Начать новую тему   Ответить на тему    Торрент-трекер NNM-Club -> Зарубежное кино -> Фильмы в оригинале (HD)
Автор Сообщение
smaster67 ®
Модератор Видео
Покровитель талантов Uploader 300+
Стаж: 8 лет
Сообщений: 6663
Ratio: 202,369
Поблагодарили: 193898
100%
Девушка в поезде / The Girl on the Train (2016) BDRemux [H.264/1080p] [EN / EN, Fr, Sp Sub]

Производство: США
Жанр: триллер, драма, детектив

Режиссер: Тейт Тейлор
Актеры: Эмили Блант, Хейли Беннетт, Ребекка Фергюсон, Джастин Теру, Люк Эванс, Эдгар Рамирес, Лора Припон, Эллисон Дженни, Даррен Голдштейн, Лиза Кудроу, Клета Элейн Эллингтон, Лана Янг

Описание:
Каждый день поезд проносит Рэйчел мимо очаровательного коттеджа, где живет идеальная на первый взгляд пара. Но однажды идиллия разрушится - прекрасная незнакомка бесследно исчезнет. Рэйчел окажется втянута в весьма запутанную историю, ведь только она видела из окна то, что было скрыто ото всех.



Продолжительность: 01:52:05
Качество видео: BDRemux
Перевод: Отсутствует
Язык озвучки: Английский
Язык субтитров: английский, испанский, французский
Вид субтитров: Вшитые

Видео: AVC, 1920x1080 (16:9), 32673 kbps, 23,976 fps, 0,657 bpp
Аудио: DTS-HD MA / 7.1 / 3454 kbps /
Код: выделить все
General
Unique ID                                The.Girl.on.the.Train.2016.REMUX.BluRay.1080p.AVC.DTS-HD.MA7.1-iFT.mkv
Format                                   : Matroska
Format version                           : Version 4 / Version 2
File size                                : 28.3 GiB
Duration                                 : 1 h 52 min
Overall bit rate mode                    : Variable
Overall bit rate                         : 36.2 Mb/s
Movie name                               : iFT
Encoded date                             : UTC 2017-01-08 03:47:27
Writing application                      : mkvmerge v9.5.0 ('Quiet Fire') 64bit
Writing library                          : libebml v1.3.4 + libmatroska v1.4.5

Video
ID                                       : 1
Format                                   : AVC
Format/Info                              : Advanced Video Codec
Format profile                           : High@L4.1
Format settings, CABAC                   : Yes
Format settings, ReFrames                : 4 frames
Codec ID                                 : V_MPEG4/ISO/AVC
Duration                                 : 1 h 52 min
Bit rate mode                            : Variable
Bit rate                                 : 32.7 Mb/s
Maximum bit rate                         : 34.2 Mb/s
Width                                    : 1 920 pixels
Height                                   : 1 080 pixels
Display aspect ratio                     : 16:9
Frame rate mode                          : Constant
Frame rate                               : 23.976 (24000/1001) FPS
Color space                              : YUV
Chroma subsampling                       : 4:2:0
Bit depth                                : 8 bits
Scan type                                : Progressive
Bits/(Pixel*Frame)                       : 0.657
Stream size                              : 25.6 GiB (90%)
Default                                  : No
Forced                                   : No

Audio
ID                                       : 2
Format                                   : DTS
Format/Info                              : Digital Theater Systems
Format profile                           : X / MA / Core
Mode                                     : 16
Format settings, Endianness              : Big
Codec ID                                 : A_DTS
Duration                                 : 1 h 52 min
Bit rate mode                            : Variable / Variable / Constant
Bit rate                                 : 3 454 kb/s / 3 454 kb/s / 1 509 kb/s
Channel(s)                               : Object Based / 8 channels / 6 channels
Channel positions                        : Object Based / Front: L C R, Side: L R, Back: L R, LFE / Front: L C R, Side: L R, LFE
Sampling rate                            :  / 48.0 kHz / 48.0 kHz
Frame rate                               : 93.750 FPS (512 spf)
Bit depth                                :  / 24 bits / 24 bits
Compression mode                         :  / Lossless / Lossy
Stream size                              : 2.70 GiB (10%)
Default                                  : Yes
Forced                                   : No

Text #1
ID                                       : 3
Format                                   : PGS
Muxing mode                              : zlib
Codec ID                                 : S_HDMV/PGS
Codec ID/Info                            : Picture based subtitle format used on BDs/HD-DVDs
Duration                                 : 1 h 45 min
Bit rate                                 : 10.5 kb/s
Count of elements                        : 2644
Stream size                              : 7.86 MiB (0%)
Language                                 : English
Default                                  : Yes
Forced                                   : No

Text #2
ID                                       : 4
Format                                   : PGS
Muxing mode                              : zlib
Codec ID                                 : S_HDMV/PGS
Codec ID/Info                            : Picture based subtitle format used on BDs/HD-DVDs
Duration                                 : 1 h 51 min
Bit rate                                 : 7 968 b/s
Count of elements                        : 2338
Stream size                              : 6.33 MiB (0%)
Language                                 : Spanish
Default                                  : No
Forced                                   : No

Text #3
ID                                       : 5
Format                                   : PGS
Muxing mode                              : zlib
Codec ID                                 : S_HDMV/PGS
Codec ID/Info                            : Picture based subtitle format used on BDs/HD-DVDs
Duration                                 : 1 h 50 min
Bit rate                                 : 8 044 b/s
Count of elements                        : 2281
Stream size                              : 6.39 MiB (0%)
Language                                 : French
Default                                  : No
Forced                                   : No

Text #4
ID                                       : 6
Format                                   : PGS
Muxing mode                              : zlib
Codec ID                                 : S_HDMV/PGS
Codec ID/Info                            : Picture based subtitle format used on BDs/HD-DVDs
Duration                                 : 1 h 45 min
Bit rate                                 : 69 b/s
Count of elements                        : 22
Stream size                              : 53.8 KiB (0%)
Language                                 : Spanish
Default                                  : No
Forced                                   : No

Text #5
ID                                       : 7
Format                                   : PGS
Muxing mode                              : zlib
Codec ID                                 : S_HDMV/PGS
Codec ID/Info                            : Picture based subtitle format used on BDs/HD-DVDs
Duration                                 : 1 h 48 min
Bit rate                                 : 126 b/s
Count of elements                        : 34
Stream size                              : 101 KiB (0%)
Language                                 : French
Default                                  : No
Forced                                   : No

Text #6
ID                                       : 8
Format                                   : PGS
Muxing mode                              : zlib
Codec ID                                 : S_HDMV/PGS
Codec ID/Info                            : Picture based subtitle format used on BDs/HD-DVDs
Duration                                 : 1 h 45 min
Bit rate                                 : 13.1 kb/s
Count of elements                        : 2701
Stream size                              : 9.87 MiB (0%)
Language                                 : English
Default                                  : No
Forced                                   : No

Menu
00:00:00.000                             : en:00:00:00.000
00:06:01.778                             : en:00:06:01.778
00:09:29.903                             : en:00:09:29.903
00:18:15.970                             : en:00:18:15.970
00:25:26.150                             : en:00:25:26.150
00:32:04.506                             : en:00:32:04.506
00:37:04.973                             : en:00:37:04.973
00:44:52.315                             : en:00:44:52.315
00:49:22.459                             : en:00:49:22.459
00:55:07.012                             : en:00:55:07.012
00:59:36.031                             : en:00:59:36.031
01:03:34.811                             : en:01:03:34.811
01:09:25.787                             : en:01:09:25.787
01:14:36.430                             : en:01:14:36.430
01:19:08.702                             : en:01:19:08.702
01:23:44.728                             : en:01:23:44.728
01:28:07.491                             : en:01:28:07.491
01:33:49.457                             : en:01:33:49.457
01:38:54.554                             : en:01:38:54.554
01:45:55.182                             : en:01:45:55.182

Скриншоты:



Все одноименные релизы в Клубе

Время раздачи: с 13:00 до 23:00
[NNMClub.to]_The.Girl.on.the.Train.2016.REMUX.BluRay.1080p.AVC.DTS-HD.MA7.1-iFT.mkv.torrent
 Торрент: Золотая раздача  Зарегистрирован
 
Примагнититься

Зарегистрируйтесь и скачайте торрент!
142 KB
 Зарегистрирован:   08 Янв 2017 14:03:07
 Размер:   28,3 GB  (
 Рейтинг:    (Голосов: 7)
 Поблагодарили:   46
 Проверка:   Оформление проверено модератором 08 Янв 2017 14:04:04
Как cкачать  ·  Как раздать  ·  Правильно оформить  ·  Поднять ратио!  
Показать сообщения:   
Начать новую тему   Ответить на тему    Торрент-трекер NNM-Club -> Зарубежное кино -> Фильмы в оригинале (HD) Часовой пояс: GMT + 3
Страница 1 из 1