Интеллигентный торрент-трекер
canvas not supported
Нас вместе: 4 338 495

Blind Ego - Liquid (2016) [FLAC|Lossless|image + .cue] <Neo-Prog, Progressive Rock>


 
 
RSS
Начать новую тему   Ответить на тему    Торрент-трекер NNM-Club -> Rock, Alternative, Punk, Metal -> Rock (Lossless)
Автор Сообщение
Svetojar ®
RG Music
 
Стаж: 6 мес. 12 дней
Сообщений: 690
Ratio: 202,111
Поблагодарили: 29173
100%
Blind Ego - Liquid (2016)
Год: 2016
Жанр: Neo-Prog, Progressive Rock
Издание: Gentle Art of Music - GAOM047
Продолжительность: 00:58:19

Кодек: FLAC
Битрейт: Lossless
Тип рипа: image + .cue

Треклист:
1. A Place in the Sun (6:11)
2. Blackened (5:44)
3. What If (6:24)
4. Not Going Away (7:32)
5. Never Escape the Storm (8:20)
6. Tears and Laughter (4:47)
7. Hear My Voice Out There (5:56)
8. Quiet Anger (6:31)
9. Speak the Truth (6:54)
foobar2000 1.2.9 / Dynamic Range Meter 1.1.1
log date: 2017-01-07 15:02:55
--------------------------------------------------------------------------------
Analyzed: Blind Ego / Liquid (GAOM047)
--------------------------------------------------------------------------------
DR Peak RMS Duration Track
--------------------------------------------------------------------------------
DR7 -0.30 dB -8.31 dB 6:11 01-A Place in the Sun
DR7 -0.30 dB -9.13 dB 5:44 02-Blackened
DR6 -0.30 dB -7.82 dB 6:24 03-What if
DR6 -0.30 dB -8.13 dB 7:32 04-Not going Away
DR6 -0.30 dB -8.30 dB 8:20 05-Never escape the Storm
DR6 -0.30 dB -7.83 dB 4:47 06-Tears and Laughter
DR7 -0.30 dB -8.54 dB 5:56 07-Hear my Voice out There
DR7 -0.30 dB -8.79 dB 6:31 08-Quiet Anger
DR7 -0.30 dB -8.93 dB 6:54 09-Speak the Truth
--------------------------------------------------------------------------------
Number of tracks: 9
Official DR value: DR7
Samplerate: 44100 Hz
Channels: 2
Bits per sample: 16
Bitrate: 937 kbps
Codec: FLAC
================================================================================
Время раздачи: Пн-Вс с 22:00 до 07:00 (до появления первых 3-5 скачавших)


Поглощение/вытеснение
Только с согласия релизера

J_Man
[NNMClub.to]_Blind Ego - 2016 - Liquid (GAOM047).torrent
 Торрент:   Зарегистрирован
 
Примагнититься

Зарегистрируйтесь и скачайте торрент!
17 KB
 Зарегистрирован:   08 Янв 2017 14:44:56
 Размер:   397 MB  (
 Рейтинг:    (Голосов: 8)
 Поблагодарили:   47
 Проверка:   Оформление проверено модератором 08 Янв 2017 14:53:41
Как cкачать  ·  Как раздать  ·  Правильно оформить  ·  Поднять ратио!  
vaselisk96
Модератор Музыки
RG Music
Реставратор
 
Стаж: 3 года 9 мес.
Сообщений: 2208
Ratio: 23,406
Раздал: 2,508 TB
Поблагодарили: 18233
100%
nnm-club.gif
Шикарный альбом! Спасибо большое за релиз!
Svetojar ®
RG Music
 
Стаж: 6 мес. 12 дней
Сообщений: 690
Ratio: 202,111
Поблагодарили: 29173
100%
vaselisk96 писал(а): Перейти к сообщению
Blind Ego

Согласен! Мне тож понравился. И всегда пожалуйста!

_________________
Я человек ленивый, поэтому все делаю быстро и качественно. Чтобы быстрее освободиться и не переделывать.
vaselisk96
Модератор Музыки
RG Music
Реставратор
 
Стаж: 3 года 9 мес.
Сообщений: 2208
Ratio: 23,406
Раздал: 2,508 TB
Поблагодарили: 18233
100%
nnm-club.gif
YouTube
Показать сообщения:   
Начать новую тему   Ответить на тему    Торрент-трекер NNM-Club -> Rock, Alternative, Punk, Metal -> Rock (Lossless) Часовой пояс: GMT + 3
Страница 1 из 1