Интеллигентный торрент-трекер
canvas not supported
Нас вместе: 4 305 142

Regent - Illusions (2016) [FLAC|Lossless|image + .cue] <Neo-Prog, Progressive Rock>


 
 
RSS
Начать новую тему   Ответить на тему    Торрент-трекер NNM-Club -> Rock, Alternative, Punk, Metal -> Rock (Lossless)
Автор Сообщение
Svetojar ®
RG Music
 
Стаж: 3 мес. 10 дней
Сообщений: 508
Ratio: 203,683
Поблагодарили: 20792
100%
Откуда: Тюмень
Regent - Illusions (2016)
Год: 2016
Жанр: Neo-Prog, Progressive Rock
Продолжительность: 00:30:03

Кодек: FLAC
Битрейт: Lossless
Тип рипа: image + .cue
Источник:WEB

Треклист:
1. Somnambulists (7:23)
2. Escapism (7:38)
3. The Silver Moon (4:51)
4. Three Minutes To Midnight (4:48)
5. Horizons (5:21)
foobar2000 1.3.8 / Dynamic Range Meter 1.1.1
log date: 2017-01-05 20:31:03
--------------------------------------------------------------------------------
Analyzed: Regent / Illusions
--------------------------------------------------------------------------------
DR Peak RMS Duration Track
--------------------------------------------------------------------------------
DR7 -0.10 dB -9.42 dB 7:24 01-Somnambulists
DR7 -0.10 dB -9.42 dB 7:39 02-Escapism
DR7 -0.10 dB -8.59 dB 4:51 03-The Silver Moon
DR7 -0.10 dB -9.39 dB 4:48 04-Three Minutes To Midnight
DR8 -0.10 dB -11.15 dB 5:21 05-Horizons
--------------------------------------------------------------------------------
Number of tracks: 5
Official DR value: DR7
Samplerate: 44100 Hz
Channels: 2
Bits per sample: 16
Bitrate: 859 kbps
Codec: FLAC
================================================================================
Время раздачи: Пн-Вс с 22:00 до 07:00 (до появления первых 3-5 скачавших)


Поглощение/вытеснение
Только с согласия релизера

J_Man
[NNMClub.to]_Regent - Illusions (2016).torrent
 Торрент:   Зарегистрирован
 
Примагнититься
Free Leech
Зарегистрируйтесь и скачайте торрент!
18,3 KB
 Зарегистрирован:   08 Янв 2017 15:03:36
 Размер:   217 MB  (
 Рейтинг:    (Голосов: 6)
 Поблагодарили:   42
 Проверка:   Оформление проверено модератором 08 Янв 2017 15:31:19
Как cкачать  ·  Как раздать  ·  Правильно оформить  ·  Поднять ратио!  
Показать сообщения:   
Начать новую тему   Ответить на тему    Торрент-трекер NNM-Club -> Rock, Alternative, Punk, Metal -> Rock (Lossless) Часовой пояс: GMT + 3
Страница 1 из 1