Интеллигентный торрент-трекер
canvas not supported
Нас вместе: 4 188 939

Шпионы по соседству / Keeping Up with the Joneses (2016) BDRemux [H.264/1080p] [EN / EN and other Sub]


 
 
RSS
Начать новую тему   Ответить на тему    Торрент-трекер NNM-Club -> Зарубежное кино -> Фильмы в оригинале (HD)
Автор Сообщение
smaster67 ®
Модератор Видео
Покровитель талантов Uploader 300+
Стаж: 7 лет 6 мес.
Сообщений: 6379
Ratio: 186,175
Поблагодарили: 179626
100%
Шпионы по соседству / Keeping Up with the Joneses (2016) BDRemux [H.264/1080p] [EN / EN and other Sub]

Производство: США
Жанр: боевик, комедия

Режиссер: Грег Моттола
Актеры: Зак Галифианакис, Айла Фишер, Джон Хэмм, Галь Гадот, Пэттон Освальт, Минг Жао, Мэтт Уолш, Мэрибет Монро, Майкл Лью, Кевин Данн, Дайо Абаниканда, Генри Бостон

Описание:
Супружеская пара из пригорода оказывается втянутой в международный шпионский заговор, когда обнаруживает, что их, казалось бы, идеальные новые соседи являются правительственными агентами.



Продолжительность: 01:45:20
Качество видео: BDRemux
Перевод: Отсутствует
Язык озвучки: Английский
Язык субтитров: Английский, Испанский, Французский, Корейский, Исландский, Румынский, Сербский, Словенский, Tайский, Tурецкий, Словацкий, Вьетнамский, Индонезийский, Венгерский, Иврит, Хорватский, Португальский, Болгарский, Греческий, Чешский, Китайский
Вид субтитров: Вшитые

Видео: AVC, 1920x1080 (16:9), 27420 kbps, 23,976 fps, 0,552 bpp
Аудио: DTS-HD / 7.1 / 48 kHz / 4308 kbps / 24 bit
Код: выделить все
General
Unique ID                               Keeping.Up.With.The.Joneses.2016.REMUX.1080p.BluRay.AVC.DTS-HD.MA7.1-iFT.mkv
Format                                   : Matroska
Format version                           : Version 4 / Version 2
File size                                : 23.7 GiB
Duration                                 : 1 h 45 min
Overall bit rate mode                    : Variable
Overall bit rate                         : 32.2 Mb/s
Movie name                               : iFT
Encoded date                             : UTC 2017-01-08 03:15:25
Writing application                      : mkvmerge v9.5.0 ('Quiet Fire') 64bit
Writing library                          : libebml v1.3.4 + libmatroska v1.4.5

Video
ID                                       : 1
Format                                   : AVC
Format/Info                              : Advanced Video Codec
Format profile                           : High@L4.1
Format settings, CABAC                   : Yes
Format settings, ReFrames                : 4 frames
Codec ID                                 : V_MPEG4/ISO/AVC
Duration                                 : 1 h 45 min
Bit rate mode                            : Variable
Bit rate                                 : 27.4 Mb/s
Maximum bit rate                         : 29.8 Mb/s
Width                                    : 1 920 pixels
Height                                   : 1 080 pixels
Display aspect ratio                     : 16:9
Frame rate mode                          : Constant
Frame rate                               : 23.976 (24000/1001) FPS
Color space                              : YUV
Chroma subsampling                       : 4:2:0
Bit depth                                : 8 bits
Scan type                                : Progressive
Bits/(Pixel*Frame)                       : 0.552
Stream size                              : 20.2 GiB (85%)
Default                                  : No
Forced                                   : No

Audio
ID                                       : 2
Format                                   : DTS
Format/Info                              : Digital Theater Systems
Format profile                           : MA / ES Matrix / Core
Mode                                     : 16
Format settings, Endianness              : Big
Codec ID                                 : A_DTS
Duration                                 : 1 h 45 min
Bit rate mode                            : Variable / Constant / Constant
Bit rate                                 : 4 309 kb/s / 1 509 kb/s / 1 509 kb/s
Channel(s)                               : 8 channels / 7 channels / 6 channels
Channel positions                        : Front: L C R, Side: L R, Back: L R, LFE / Front: L C R, Side: L R, Back: C, LFE / Front: L C R, Side: L R, LFE
Sampling rate                            : 48.0 kHz
Frame rate                               : 93.750 FPS (512 spf)
Bit depth                                : 24 bits
Compression mode                         : Lossless / Lossy / Lossy
Stream size                              : 3.17 GiB (13%)
Default                                  : Yes
Forced                                   : No

Text #1
ID                                       : 3
Format                                   : PGS
Muxing mode                              : zlib
Codec ID                                 : S_HDMV/PGS
Codec ID/Info                            : Picture based subtitle format used on BDs/HD-DVDs
Duration                                 : 1 h 40 min
Bit rate                                 : 24.7 kb/s
Count of elements                        : 4240
Stream size                              : 17.8 MiB (0%)
Language                                 : English
Default                                  : Yes
Forced                                   : No

Text #2
ID                                       : 4
Format                                   : PGS
Muxing mode                              : zlib
Codec ID                                 : S_HDMV/PGS
Codec ID/Info                            : Picture based subtitle format used on BDs/HD-DVDs
Duration                                 : 1 h 44 min
Bit rate                                 : 18.8 kb/s
Count of elements                        : 3538
Stream size                              : 14.0 MiB (0%)
Language                                 : Spanish
Default                                  : No
Forced                                   : No

Text #3
ID                                       : 5
Format                                   : PGS
Muxing mode                              : zlib
Codec ID                                 : S_HDMV/PGS
Codec ID/Info                            : Picture based subtitle format used on BDs/HD-DVDs
Duration                                 : 1 h 44 min
Bit rate                                 : 20.3 kb/s
Count of elements                        : 3996
Stream size                              : 15.2 MiB (0%)
Language                                 : French
Default                                  : No
Forced                                   : No

Text #4
ID                                       : 6
Format                                   : PGS
Muxing mode                              : zlib
Codec ID                                 : S_HDMV/PGS
Codec ID/Info                            : Picture based subtitle format used on BDs/HD-DVDs
Duration                                 : 1 h 44 min
Bit rate                                 : 17.8 kb/s
Count of elements                        : 3876
Stream size                              : 13.3 MiB (0%)
Language                                 : Portuguese
Default                                  : No
Forced                                   : No

Text #5
ID                                       : 7
Format                                   : PGS
Muxing mode                              : zlib
Codec ID                                 : S_HDMV/PGS
Codec ID/Info                            : Picture based subtitle format used on BDs/HD-DVDs
Duration                                 : 1 h 44 min
Bit rate                                 : 18.7 kb/s
Count of elements                        : 4016
Stream size                              : 14.0 MiB (0%)
Language                                 : Bulgarian
Default                                  : No
Forced                                   : No

Text #6
ID                                       : 8
Format                                   : PGS
Muxing mode                              : zlib
Codec ID                                 : S_HDMV/PGS
Codec ID/Info                            : Picture based subtitle format used on BDs/HD-DVDs
Duration                                 : 1 h 44 min
Bit rate                                 : 18.7 kb/s
Count of elements                        : 4024
Stream size                              : 14.0 MiB (0%)
Language                                 : Chinese
Default                                  : No
Forced                                   : No

Text #7
ID                                       : 9
Format                                   : PGS
Muxing mode                              : zlib
Codec ID                                 : S_HDMV/PGS
Codec ID/Info                            : Picture based subtitle format used on BDs/HD-DVDs
Duration                                 : 1 h 44 min
Bit rate                                 : 19.3 kb/s
Count of elements                        : 3792
Stream size                              : 14.5 MiB (0%)
Language                                 : Croatian
Default                                  : No
Forced                                   : No

Text #8
ID                                       : 10
Format                                   : PGS
Muxing mode                              : zlib
Codec ID                                 : S_HDMV/PGS
Codec ID/Info                            : Picture based subtitle format used on BDs/HD-DVDs
Duration                                 : 1 h 44 min
Bit rate                                 : 19.8 kb/s
Count of elements                        : 3996
Stream size                              : 14.8 MiB (0%)
Language                                 : Czech
Default                                  : No
Forced                                   : No

Text #9
ID                                       : 11
Format                                   : PGS
Muxing mode                              : zlib
Codec ID                                 : S_HDMV/PGS
Codec ID/Info                            : Picture based subtitle format used on BDs/HD-DVDs
Duration                                 : 1 h 44 min
Bit rate                                 : 23.0 kb/s
Count of elements                        : 4008
Stream size                              : 17.2 MiB (0%)
Language                                 : grc
Default                                  : No
Forced                                   : No

Text #10
ID                                       : 12
Format                                   : PGS
Muxing mode                              : zlib
Codec ID                                 : S_HDMV/PGS
Codec ID/Info                            : Picture based subtitle format used on BDs/HD-DVDs
Duration                                 : 1 h 44 min
Bit rate                                 : 16.7 kb/s
Count of elements                        : 4010
Stream size                              : 12.5 MiB (0%)
Language                                 : Hebrew
Default                                  : No
Forced                                   : No

Text #11
ID                                       : 13
Format                                   : PGS
Muxing mode                              : zlib
Codec ID                                 : S_HDMV/PGS
Codec ID/Info                            : Picture based subtitle format used on BDs/HD-DVDs
Duration                                 : 1 h 44 min
Bit rate                                 : 16.6 kb/s
Count of elements                        : 2894
Stream size                              : 12.4 MiB (0%)
Language                                 : Hungarian
Default                                  : No
Forced                                   : No

Text #12
ID                                       : 14
Format                                   : PGS
Muxing mode                              : zlib
Codec ID                                 : S_HDMV/PGS
Codec ID/Info                            : Picture based subtitle format used on BDs/HD-DVDs
Duration                                 : 1 h 44 min
Bit rate                                 : 19.3 kb/s
Count of elements                        : 3414
Stream size                              : 14.4 MiB (0%)
Language                                 : Icelandic
Default                                  : No
Forced                                   : No

Text #13
ID                                       : 15
Format                                   : PGS
Muxing mode                              : zlib
Codec ID                                 : S_HDMV/PGS
Codec ID/Info                            : Picture based subtitle format used on BDs/HD-DVDs
Duration                                 : 1 h 44 min
Bit rate                                 : 18.2 kb/s
Count of elements                        : 3988
Stream size                              : 13.6 MiB (0%)
Language                                 : Indonesian
Default                                  : No
Forced                                   : No

Text #14
ID                                       : 16
Format                                   : PGS
Muxing mode                              : zlib
Codec ID                                 : S_HDMV/PGS
Codec ID/Info                            : Picture based subtitle format used on BDs/HD-DVDs
Duration                                 : 1 h 44 min
Bit rate                                 : 26.9 kb/s
Count of elements                        : 4018
Stream size                              : 20.0 MiB (0%)
Language                                 : Chinese
Default                                  : No
Forced                                   : No

Text #15
ID                                       : 17
Format                                   : PGS
Muxing mode                              : zlib
Codec ID                                 : S_HDMV/PGS
Codec ID/Info                            : Picture based subtitle format used on BDs/HD-DVDs
Duration                                 : 1 h 44 min
Bit rate                                 : 21.7 kb/s
Count of elements                        : 4000
Stream size                              : 16.2 MiB (0%)
Language                                 : Portuguese
Default                                  : No
Forced                                   : No

Text #16
ID                                       : 18
Format                                   : PGS
Muxing mode                              : zlib
Codec ID                                 : S_HDMV/PGS
Codec ID/Info                            : Picture based subtitle format used on BDs/HD-DVDs
Duration                                 : 1 h 44 min
Bit rate                                 : 18.9 kb/s
Count of elements                        : 3988
Stream size                              : 14.1 MiB (0%)
Language                                 : Romanian
Default                                  : No
Forced                                   : No

Text #17
ID                                       : 19
Format                                   : PGS
Muxing mode                              : zlib
Codec ID                                 : S_HDMV/PGS
Codec ID/Info                            : Picture based subtitle format used on BDs/HD-DVDs
Duration                                 : 1 h 44 min
Bit rate                                 : 19.5 kb/s
Count of elements                        : 4006
Stream size                              : 14.6 MiB (0%)
Language                                 : Serbian
Default                                  : No
Forced                                   : No

Text #18
ID                                       : 20
Format                                   : PGS
Muxing mode                              : zlib
Codec ID                                 : S_HDMV/PGS
Codec ID/Info                            : Picture based subtitle format used on BDs/HD-DVDs
Duration                                 : 1 h 44 min
Bit rate                                 : 18.9 kb/s
Count of elements                        : 3976
Stream size                              : 14.1 MiB (0%)
Language                                 : Slovak
Default                                  : No
Forced                                   : No

Text #19
ID                                       : 21
Format                                   : PGS
Muxing mode                              : zlib
Codec ID                                 : S_HDMV/PGS
Codec ID/Info                            : Picture based subtitle format used on BDs/HD-DVDs
Duration                                 : 1 h 44 min
Bit rate                                 : 16.2 kb/s
Count of elements                        : 2640
Stream size                              : 12.1 MiB (0%)
Language                                 : Slovenian
Default                                  : No
Forced                                   : No

Text #20
ID                                       : 22
Format                                   : PGS
Muxing mode                              : zlib
Codec ID                                 : S_HDMV/PGS
Codec ID/Info                            : Picture based subtitle format used on BDs/HD-DVDs
Duration                                 : 1 h 44 min
Bit rate                                 : 18.3 kb/s
Count of elements                        : 4014
Stream size                              : 13.7 MiB (0%)
Language                                 : Thai
Default                                  : No
Forced                                   : No

Text #21
ID                                       : 23
Format                                   : PGS
Muxing mode                              : zlib
Codec ID                                 : S_HDMV/PGS
Codec ID/Info                            : Picture based subtitle format used on BDs/HD-DVDs
Duration                                 : 1 h 44 min
Bit rate                                 : 19.1 kb/s
Count of elements                        : 3994
Stream size                              : 14.2 MiB (0%)
Language                                 : Turkish
Default                                  : No
Forced                                   : No

Text #22
ID                                       : 24
Format                                   : PGS
Muxing mode                              : zlib
Codec ID                                 : S_HDMV/PGS
Codec ID/Info                            : Picture based subtitle format used on BDs/HD-DVDs
Duration                                 : 1 h 44 min
Bit rate                                 : 22.7 kb/s
Count of elements                        : 4000
Stream size                              : 17.0 MiB (0%)
Language                                 : Vietnamese
Default                                  : No
Forced                                   : No

Text #23
ID                                       : 25
Format                                   : PGS
Muxing mode                              : zlib
Codec ID                                 : S_HDMV/PGS
Codec ID/Info                            : Picture based subtitle format used on BDs/HD-DVDs
Duration                                 : 16 s 683 ms
Bit rate                                 : 21.4 kb/s
Count of elements                        : 10
Stream size                              : 43.5 KiB (0%)
Language                                 : English
Default                                  : No
Forced                                   : No

Menu
00:00:00.000                             : en:00:00:00.000
00:03:43.473                             : en:00:03:43.473
00:06:41.651                             : en:00:06:41.651
00:09:55.845                             : en:00:09:55.845
00:13:28.182                             : en:00:13:28.182
00:17:06.025                             : en:00:17:06.025
00:21:07.933                             : en:00:21:07.933
00:26:02.311                             : en:00:26:02.311
00:30:07.514                             : en:00:30:07.514
00:33:56.743                             : en:00:33:56.743
00:37:43.761                             : en:00:37:43.761
00:40:59.457                             : en:00:40:59.457
00:45:35.149                             : en:00:45:35.149
00:49:00.312                             : en:00:49:00.312
00:52:35.152                             : en:00:52:35.152
00:55:59.189                             : en:00:55:59.189
01:00:50.230                             : en:01:00:50.230
01:04:33.244                             : en:01:04:33.244
01:08:47.665                             : en:01:08:47.665
01:12:04.654                             : en:01:12:04.654
01:15:58.554                             : en:01:15:58.554
01:19:31.809                             : en:01:19:31.809
01:22:46.545                             : en:01:22:46.545
01:25:43.972                             : en:01:25:43.972
01:29:02.295                             : en:01:29:02.295
01:31:44.874                             : en:01:31:44.874
01:34:18.528                             : en:01:34:18.528
01:37:32.680                             : en:01:37:32.680

Скриншоты:



Все одноименные релизы в Клубе

Время раздачи: с 13:00 до 23:00
[NNMClub.to]_Keeping.Up.With.The.Joneses.2016.REMUX.1080p.BluRay.AVC.DTS-HD.MA7.1-iFT.mkv.torrent
 Торрент: Золотая раздача  Зарегистрирован
 
Примагнититься
Free Leech
Зарегистрируйтесь и скачайте торрент!
119 KB
 Зарегистрирован:   08 Янв 2017 15:52:49
 Размер:   23,7 GB  (
 Рейтинг:    (Голосов: 6)
 Поблагодарили:   37
 Проверка:   Оформление проверено модератором 08 Янв 2017 15:53:22
Как cкачать  ·  Как раздать  ·  Правильно оформить  ·  Поднять ратио!  
Показать сообщения:   
Начать новую тему   Ответить на тему    Торрент-трекер NNM-Club -> Зарубежное кино -> Фильмы в оригинале (HD) Часовой пояс: GMT + 3
Страница 1 из 1