Интеллигентный торрент-трекер
canvas not supported
Нас вместе: 4 342 439

Евгений Лукин | Зона справедливости (2004) [m4b|AAC]


 
 
RSS
Начать новую тему   Ответить на тему    Торрент-трекер NNM-Club -> Аудио и Видео -> Аудиокниги (AAC)
Автор Сообщение
trybag ®
Стаж: 4 года 1 мес.
Сообщений: 76
Ratio: 18,083
Поблагодарили: 1684
100%
Евгений Лукин | Зона справедливости
Автор: Евгений Лукин
Год: 2004
Жанр: Фантастика
Продолжительность: 12:37:04
Читает: Юрий Заборовский
Издательство: Сидиком

Описание: Что хорошего может случиться в темной подворотне? Как известно, ничего. Но эта жутковата как-то даже чересчур. Темная подворотня, и темные в ней творятся дела. В ней умирают люди, рядом терпят аварию автомобили, незримая рука может надавать пощечин припозднившемуся прохожему. Мерзкое место, а самое в нем мерзкое то, что оно не просто подворотня, а таинственная Зона Справедливости. Так, ничего особенного, просто материализуется закон - `Око за око`. И магия все сильнее, и Зона начинает расти, и совершенно неясно, что из такого сомнительного чуда выйдет...

«Да воздастся всем - по делам их» - вот высший закон справедливости. Поселилась справедливость в городе этом, жила до поры, до времени в подворотне жуткой. Творила дела свои праведные, раздавала по заслугам каждому. Не взлюбили люди место странное и прозвали – «зоной справедливости». Но не долго справедливость в арке пряталась, пошла по городу: возвращая удары – ударившим, смерть – убившим. Испугались люди и бежали от такой справедливости.

Формат: M4B
Аудиокодек: AAC
Битрейт: 160 kbps
Частота: 44,1 KHz
Разбивка на главы: есть
Вшитые обложки: есть
Музыкальное сопровождение: есть
Обложка: В обложки использованы рисунки Андрея Карапетяна
Глава 1. Прослушать сэмпл:



Код: выделить все
Общее
Полное имя                               : Зона справедливости 1.m4b
Формат                                   : MPEG-4
Профиль формата                          : Apple audio with iTunes position
Идентификатор кодека                     : M4B  (M4B /mp42)
Размер файла                             : 426 Мбайт
Продолжительность                        : 6 ч. 8 м.
Режим общего битрейта                    : Переменный
Общий поток                              : 162 Кбит/сек
Альбом                                   : Зона справедливости
Альбом/Исполнитель                       : Евгений Лукин
Трек                                     : Зона справедливости 1
Трек/Положение                           : 1
Трек/Всего                               : 2
Исполнитель                              : Евгений Лукин
Композитор                               : Юрий Заборовский
Издатель                                 : Сидиком
Жанр                                     : Фантастика
Дата записи                              : 2004
Дата кодирования                         : UTC 2017-01-08 10:04:20
Дата пометки                             : UTC 2017-01-08 16:00:32
Обложка                                  : Yes
Примечание                               : В обложки использованы рисунки Андрея Карапетяна
©art                                     : Евгений Лукин

Аудио
Идентификатор                            : 1
Формат                                   : AAC
Формат/Информация                        : Advanced Audio Codec
Профиль формата                          : LC
Идентификатор кодека                     : 40
Продолжительность                        : 6 ч. 8 м.
Продолжительность оригинала              : 6 ч. 8 м.
Вид битрейта                             : Переменный
Битрейт                                  : 160 Кбит/сек
Максимальный битрейт                     : 171 Кбит/сек
Каналы                                   : 2 канала
Расположение каналов                     : Front: L R
Частота                                  : 44,1 КГц
Частота кадров                           : 43,066 кадра/сек (1024 spf)
Метод сжатия                             : С потерями
Размер потока                            : 422 Мбайт (99%)
Размер потока оригинала                  : 422 Мбайт (99%)
Дата кодирования                         : UTC 2017-01-08 10:04:20
Дата пометки                             : UTC 2017-01-08 16:00:32
Menus                                    : 2

Меню
Идентификатор                            : 2
Идентификатор кодека                     : text
Продолжительность                        : 6 ч. 8 м.
Язык                                     : English
Дата кодирования                         : UTC 2017-01-08 15:56:12
Дата пометки                             : UTC 2017-01-08 15:56:12
Menu For                                 : 1
Продолжительность оригинала              : 22116378
Количество кадров оригинала              : 11
Размер потока оригинала                  : 299
Счётчик кадров                           : 11
Размер потока                            : 299
00:00:00.000                             : Глава 1
00:26:33.283                             : Глава 2
00:58:20.802                             : Глава 3
01:30:55.272                             : Глава 4
02:08:14.047                             : Глава 5
02:38:39.809                             : Глава 6
03:09:19.689                             : Глава 7
03:42:56.574                             : Глава 8
04:19:55.891                             : Глава 9
04:49:55.391                             : Глава 10
05:27:22.293                             : Глава 11
Вид битрейта                             : VBR

Полное имя                               : Зона справедливости 2.m4b
Формат                                   : MPEG-4
Профиль формата                          : Apple audio with iTunes position
Идентификатор кодека                     : M4B  (M4B /mp42)
Размер файла                             : 449 Мбайт
Продолжительность                        : 6 ч. 28 м.
Режим общего битрейта                    : Переменный
Общий поток                              : 162 Кбит/сек
Альбом                                   : Зона справедливости
Альбом/Исполнитель                       : Евгений Лукин
Трек                                     : Зона справедливости 2
Трек/Положение                           : 2
Трек/Всего                               : 2
Исполнитель                              : Евгений Лукин
Композитор                               : Юрий Заборовский
Издатель                                 : Сидиком
Жанр                                     : Фантастика
Дата записи                              : 2004
Дата кодирования                         : UTC 2017-01-08 10:13:37
Дата пометки                             : UTC 2017-01-08 16:01:07
Обложка                                  : Yes
Примечание                               : В обложки использованы рисунки Андрея Карапетяна
©art                                     : Евгений Лукин

Аудио
Идентификатор                            : 1
Формат                                   : AAC
Формат/Информация                        : Advanced Audio Codec
Профиль формата                          : LC
Идентификатор кодека                     : 40
Продолжительность                        : 6 ч. 28 м.
Вид битрейта                             : Переменный
Битрейт                                  : 160 Кбит/сек
Максимальный битрейт                     : 171 Кбит/сек
Каналы                                   : 2 канала
Расположение каналов                     : Front: L R
Частота                                  : 44,1 КГц
Частота кадров                           : 43,066 кадра/сек (1024 spf)
Метод сжатия                             : С потерями
Размер потока                            : 445 Мбайт (99%)
Дата кодирования                         : UTC 2017-01-08 10:13:37
Дата пометки                             : UTC 2017-01-08 16:01:07
Menus                                    : 2

Меню
Идентификатор                            : 2
Идентификатор кодека                     : text
Продолжительность                        : 6 ч. 28 м.
Язык                                     : English
Дата кодирования                         : UTC 2017-01-08 15:56:55
Дата пометки                             : UTC 2017-01-08 15:56:55
Menu For                                 : 1
00:00:00.000                             : Глава 12
00:39:18.218                             : Глава 13
01:10:40.219                             : Глава 14
01:46:25.719                             : Глава 15
02:19:13.053                             : Глава 16
02:54:41.440                             : Глава 17
03:30:10.060                             : Глава 18
04:05:16.644                             : Глава 19
04:37:54.155                             : Глава 20
05:19:10.703                             : Глава 21
05:50:24.414                             : Глава 22
Вид битрейта                             : VBR

[NNMClub.to]_Zona spravedlivosti.torrent
 Торрент:   Зарегистрирован
 
Примагнититься
Free Leech
Зарегистрируйтесь и скачайте торрент!
17,4 KB
 Зарегистрирован:   08 Янв 2017 16:51:45
 Размер:   875 MB  (
 Рейтинг:    (Голосов: 7)
 Поблагодарили:   46
 Проверка:   Оформление проверено модератором 11 Янв 2017 17:26:17
Как cкачать  ·  Как раздать  ·  Правильно оформить  ·  Поднять ратио!  
Загрузка...
Ahtircev
Стаж: 7 лет 6 мес.
Сообщений: 85
Ratio: 2,231
46.44%
Добавлено спустя 3 минуты 45 секунд:

Отлично!!! нашёл у Вас в МР3

Добавлено спустя 1 минуту 2 секунды:

Начал слушать в плеере и не оторваться !!!
Показать сообщения:   
Начать новую тему   Ответить на тему    Торрент-трекер NNM-Club -> Аудио и Видео -> Аудиокниги (AAC) Часовой пояс: GMT + 3
Страница 1 из 1

День смеха и юмора отмечается 1 апреля. В этот день принято шутить и разыгрывать друзей, коллег по работе, домашних, словом всех, с кем Вам предстоит увидеться в этот праздник – первое апреля. Первоапрельские розыгрыши, приколы на 1 апреля, первоапрельские шутки должны быть веселыми и безобидными. Приколы на 1 апреля, как правило, удаются в том случае, если человек забыл какой сегодня месяц и день, словом, забыл про 1 апреля – день смеха, шуток, день дурака.

Желаем Вам много улыбок и хорошего настроения в этот день!
С Уважением, администрация NNM-Club :)