Интеллигентный торрент-трекер
canvas not supported
Нас вместе: 4 252 163

Автобан / Collide (2016) BDRemux [H.264/1080p] [EN / Jap Sub]


 
 
RSS
Начать новую тему   Ответить на тему    Торрент-трекер NNM-Club -> Зарубежное кино -> Фильмы в оригинале (HD)
Автор Сообщение
smaster67 ®
Модератор Видео
Покровитель талантов Uploader 300+
Стаж: 7 лет 7 мес.
Сообщений: 6486
Ratio: 188,557
Поблагодарили: 185048
100%
Автобан / Collide (2016) BDRemux [H.264/1080p] [EN / Jap Sub]

Производство: Великобритания, Германия
Жанр: боевик, триллер

Режиссер: Эрен Криви
Актеры: Николас Холт, Фелисити Джонс, Энтони Хопкинс, Бен Кингсли, Марван Кензари, Александр Йованович, Кристиан Перерсен, Эрдал Йильдиз, Клеменс Шик, Джонни Пальмьеро, Бен Хеккер, Йоахим Круль

Описание:
Американский турист Кейси Штайн, путешествуя с подругой по Европе, оказывается втянутым в разборки между двумя враждующими мафиозными группировками. Одну из них возглавляет Хаген, другую - Геран. И с этого момента начинается смертельно опасная гонка на запредельной скорости по автобанам Германии.



Продолжительность: 01:38:42
Качество видео: BDRemux
Перевод: Отсутствует
Язык озвучки: Английский
Язык субтитров: японский
Вид субтитров: Вшитые

Видео: AVC, 1920x1080 (16:9), 37980 kbps, 23,976 fps, 0,764 bpp
Аудио: DTS-HD / 5.1 / 48 kHz / 2453 kbps / 16 bit (Core: 5.1 / 48 kHz / 1509 kbps / 16 bit)
Код: выделить все
General
Unique ID                              Collide.2016.BluRay.REMUX.1080p.AVC.DTS-HD.MA5.1-iFT.mkv
Format                                   : Matroska
Format version                           : Version 4 / Version 2
File size                                : 27.9 GiB
Duration                                 : 1 h 38 min
Overall bit rate mode                    : Variable
Overall bit rate                         : 40.5 Mb/s
Movie name                               : iFT
Encoded date                             : UTC 2017-01-08 05:05:26
Writing application                      : mkvmerge v9.5.0 ('Quiet Fire') 64bit
Writing library                          : libebml v1.3.4 + libmatroska v1.4.5

Video
ID                                       : 1
Format                                   : AVC
Format/Info                              : Advanced Video Codec
Format profile                           : High@L4.1
Format settings, CABAC                   : Yes
Format settings, ReFrames                : 4 frames
Codec ID                                 : V_MPEG4/ISO/AVC
Duration                                 : 1 h 38 min
Bit rate mode                            : Variable
Bit rate                                 : 38.0 Mb/s
Maximum bit rate                         : 38.5 Mb/s
Width                                    : 1 920 pixels
Height                                   : 1 080 pixels
Display aspect ratio                     : 16:9
Frame rate mode                          : Constant
Frame rate                               : 23.976 (24000/1001) FPS
Color space                              : YUV
Chroma subsampling                       : 4:2:0
Bit depth                                : 8 bits
Scan type                                : Progressive
Bits/(Pixel*Frame)                       : 0.764
Stream size                              : 26.2 GiB (94%)
Default                                  : No
Forced                                   : No
Color range                              : Limited
Color primaries                          : BT.709
Transfer characteristics                 : BT.709
Matrix coefficients                      : BT.709

Audio
ID                                       : 2
Format                                   : DTS
Format/Info                              : Digital Theater Systems
Format profile                           : MA / Core
Mode                                     : 16
Format settings, Endianness              : Big
Codec ID                                 : A_DTS
Duration                                 : 1 h 38 min
Bit rate mode                            : Variable / Constant
Bit rate                                 : 2 454 kb/s / 1 509 kb/s
Channel(s)                               : 6 channels
Channel positions                        : Front: L C R, Side: L R, LFE
Sampling rate                            : 48.0 kHz
Frame rate                               : 93.750 FPS (512 spf)
Bit depth                                : 16 bits
Compression mode                         : Lossless / Lossy
Stream size                              : 1.69 GiB (6%)
Default                                  : Yes
Forced                                   : No

Text #1
ID                                       : 3
Format                                   : PGS
Muxing mode                              : zlib
Codec ID                                 : S_HDMV/PGS
Codec ID/Info                            : Picture based subtitle format used on BDs/HD-DVDs
Duration                                 : 1 h 29 min
Bit rate                                 : 23.8 kb/s
Count of elements                        : 2349
Stream size                              : 15.2 MiB (0%)
Language                                 : Japanese
Default                                  : Yes
Forced                                   : No

Text #2
ID                                       : 4
Format                                   : PGS
Muxing mode                              : zlib
Codec ID                                 : S_HDMV/PGS
Codec ID/Info                            : Picture based subtitle format used on BDs/HD-DVDs
Duration                                 : 1 h 26 min
Bit rate                                 : 942 b/s
Count of elements                        : 235
Stream size                              : 600 KiB (0%)
Language                                 : Japanese
Default                                  : No
Forced                                   : No

Menu
00:00:00.000                             : en:00:00:00.000
00:10:29.712                             : en:00:10:29.712
00:19:13.944                             : en:00:19:13.944
00:26:06.565                             : en:00:26:06.565
00:35:39.054                             : en:00:35:39.054
00:46:35.710                             : en:00:46:35.710
00:58:15.200                             : en:00:58:15.200
01:10:06.577                             : en:01:10:06.577
01:18:05.848                             : en:01:18:05.848
01:28:32.766                             : en:01:28:32.766

Скриншоты:



Все одноименные релизы в Клубе

Время раздачи: с 13:00 до 23:00
[NNMClub.to]_Collide.2016.BluRay.REMUX.1080p.AVC.DTS-HD.MA5.1-iFT.mkv.torrent
 Торрент: Золотая раздача  Зарегистрирован
 
Примагнититься
Free Leech
Зарегистрируйтесь и скачайте торрент!
140 KB
 Зарегистрирован:   08 Янв 2017 23:08:08
 Размер:   27,9 GB  (
 Рейтинг:    (Голосов: 7)
 Поблагодарили:   36
 Проверка:   Оформление проверено модератором 08 Янв 2017 23:09:01
Как cкачать  ·  Как раздать  ·  Правильно оформить  ·  Поднять ратио!  
Показать сообщения:   
Начать новую тему   Ответить на тему    Торрент-трекер NNM-Club -> Зарубежное кино -> Фильмы в оригинале (HD) Часовой пояс: GMT + 3
Страница 1 из 1