Интеллигентный торрент-трекер
canvas not supported
Нас вместе: 4 348 564

Смертельная Гонка 2050 / Death Race 2050 (2017) BDRip [H.264/720p] [EN]


 
 
RSS
Начать новую тему   Ответить на тему    Торрент-трекер NNM-Club -> Зарубежное кино -> Фильмы в оригинале (HD)
Автор Сообщение
smaster67 ®
Модератор Видео
Покровитель талантов Uploader 300+
Стаж: 7 лет 10 мес.
Сообщений: 6629
Ratio: 198,686
Поблагодарили: 192370
100%
Смертельная Гонка 2050 / Death Race 2050 (2017) BDRip [H.264/720p] [EN]

Производство: США
Жанр: фантастика, боевик, комедия

Режиссер: Гилберт Джон
Актеры: Ману Беннетт, Малкольм МакДауэлл, Марсия Миллер, Берт Гринстед, Фолаке Оловофойеку, Энесса Ремси, Янси Батлер, Чарли Фаррелл, Шэнна Олсон, Д.С. Дуглас

Описание:
"Смертельная гонка" - ежегодное национальное шоу Америки, активно рекламируемое президентом. Несколько экипажей, состоящих из водителя и штурмана, должны не только как можно быстрее пересечь США, но и набрать как можно больше очков. Очки же даются за сбитых пешеходов: 10 очков за взрослого, 20 за ребенка и 50 за престарелых граждан.



Продолжительность: 01:32:42
Качество видео: BDRip
Перевод: Отсутствует
Язык озвучки: Английский

Видео: AVC, 1280x720 (16:9), 5240 kbps, 23,976 fps, 0,237 bpp
Аудио: английский / DTS / 5.1 / 48 kHz / 1509 kbps / 24 bit
Код: выделить все
General
Unique ID                               Death Race 2050.2017.720p.mkv
Format                                   : Matroska
Format version                           : Version 4 / Version 2
File size                                : 4.37 GiB
Duration                                 : 1 h 32 min
Overall bit rate                         : 6 750 kb/s
Encoded date                             : UTC 2017-01-08 18:29:13
Writing application                      : mkvmerge v8.3.0 ('Over the Horizon') 64bit
Writing library                          : libebml v1.3.1 + libmatroska v1.4.2

Video
ID                                       : 1
Format                                   : AVC
Format/Info                              : Advanced Video Codec
Format profile                           : High@L4.1
Format settings, CABAC                   : Yes
Format settings, ReFrames                : 5 frames
Codec ID                                 : V_MPEG4/ISO/AVC
Duration                                 : 1 h 32 min
Bit rate                                 : 5 240 kb/s
Width                                    : 1 280 pixels
Height                                   : 720 pixels
Display aspect ratio                     : 16:9
Frame rate mode                          : Constant
Frame rate                               : 23.976 (24000/1001) FPS
Color space                              : YUV
Chroma subsampling                       : 4:2:0
Bit depth                                : 8 bits
Scan type                                : Progressive
Bits/(Pixel*Frame)                       : 0.237
Stream size                              : 3.39 GiB (78%)
Writing library                          : x264 core 148 r2705 3f5ed56
Encoding settings                        : cabac=1 / ref=5 / deblock=1:0:0 / analyse=0x3:0x133 / me=umh / subme=9 / psy=1 / psy_rd=1.00:0.00 / mixed_ref=1 / me_range=16 / chroma_me=1 / trellis=2 / 8x8dct=1 / cqm=0 / deadzone=21,11 / fast_pskip=0 / chroma_qp_offset=-2 / threads=22 / lookahead_threads=1 / sliced_threads=0 / nr=0 / decimate=1 / interlaced=0 / bluray_compat=0 / constrained_intra=0 / bframes=3 / b_pyramid=2 / b_adapt=2 / b_bias=0 / direct=3 / weightb=1 / open_gop=0 / weightp=2 / keyint=250 / keyint_min=23 / scenecut=40 / intra_refresh=0 / rc_lookahead=50 / rc=2pass / mbtree=1 / bitrate=5240 / ratetol=1.0 / qcomp=0.60 / qpmin=0 / qpmax=69 / qpstep=4 / cplxblur=20.0 / qblur=0.5 / ip_ratio=1.40 / aq=1:1.00
Language                                 : English
Default                                  : Yes
Forced                                   : No

Audio
ID                                       : 2
Format                                   : DTS
Format/Info                              : Digital Theater Systems
Mode                                     : 16
Format settings, Endianness              : Big
Codec ID                                 : A_DTS
Duration                                 : 1 h 32 min
Bit rate mode                            : Constant
Bit rate                                 : 1 509 kb/s
Channel(s)                               : 6 channels
Channel positions                        : Front: L C R, Side: L R, LFE
Sampling rate                            : 48.0 kHz
Frame rate                               : 93.750 FPS (512 spf)
Bit depth                                : 24 bits
Compression mode                         : Lossy
Stream size                              : 1 001 MiB (22%)
Language                                 : English
Default                                  : Yes
Forced                                   : No

Menu
00:00:00.000                             : en:00:00:00.000
00:04:25.474                             : en:00:04:25.474
00:08:18.206                             : en:00:08:18.206
00:12:29.082                             : en:00:12:29.082
00:17:51.529                             : en:00:17:51.529
00:21:22.114                             : en:00:21:22.114
00:26:07.941                             : en:00:26:07.941
00:29:09.748                             : en:00:29:09.748
00:32:25.652                             : en:00:32:25.652
00:37:11.521                             : en:00:37:11.521
00:43:21.933                             : en:00:43:21.933
00:50:56.095                             : en:00:50:56.095
00:56:25.549                             : en:00:56:25.549
01:01:42.616                             : en:01:01:42.616
01:05:45.400                             : en:01:05:45.400
01:10:50.371                             : en:01:10:50.371
01:15:18.222                             : en:01:15:18.222
01:21:26.882                             : en:01:21:26.882
01:24:49.668                             : en:01:24:49.668
01:28:54.829                             : en:01:28:54.829

Скриншоты:



Все одноименные релизы в Клубе

Время раздачи: с 13:00 до 23:00
[NNMClub.to]_Death Race 2050.2017.720p.mkv.torrent
 Торрент: Серебряная раздча  Зарегистрирован
 
Примагнититься
Free Leech
Зарегистрируйтесь и скачайте торрент!
22 KB
 Зарегистрирован:   09 Янв 2017 08:54:35
 Размер:   4,37 GB  (
 Рейтинг:   3,5 (Голосов: 11)
 Поблагодарили:   57
 Проверка:   Оформление проверено модератором 09 Янв 2017 08:55:42
Как cкачать  ·  Как раздать  ·  Правильно оформить  ·  Поднять ратио!  
Загрузка...
Хаустов Роман
Стаж: 6 лет 3 мес.
Сообщений: 12
Ratio: 6,277
5.05%
russia.gif
Дааааа.Видать и впрямь у американцев мозги усохли,если их режиссеры взялись за такие сценари)))))))

Добавлено спустя 3 минуты 21 секунду:

за раздачу спасибо)
Новая4
Стаж: 2 года 10 мес.
Сообщений: 9
Ratio: 20,927
100%
При таком сюжете, нет никакого желания смотреть фильм.
kokosov
Uploader 100+
Стаж: 9 лет 11 мес.
Сообщений: 396
Ratio: 111,296
Раздал: 143,9 TB
100%
Откуда: Москва
russia.gif
Первая часть была по игре Death Track (эх, кто её ещё помнит-то, рубились ещё на 286/386 компах), а эта, похоже, уже по GTA...

Ждёмс с переводом.
Gokudo-kun
Стаж: 4 года 11 мес.
Сообщений: 117
Ratio: 87,148
Поблагодарили: 4428
100%
russia.gif
Как прочитал описание, Carmageddon вспомнил.
dima_zgr
Стаж: 5 лет 1 мес.
Сообщений: 72
Ratio: 40,862
100%
Этот бред и с переводом смотреть опасно
Показать сообщения:   
Начать новую тему   Ответить на тему    Торрент-трекер NNM-Club -> Зарубежное кино -> Фильмы в оригинале (HD) Часовой пояс: GMT + 3
Страница 1 из 1