Интеллигентный торрент-трекер
canvas not supported
Нас вместе: 4 302 089

Уиджи. Проклятие доски дьявола / Ouija: Origin of Evil (2016) BDRemux [H.264/1080p] [EN / EN, Fr, Sp Sub]


 
 
RSS
Начать новую тему   Ответить на тему    Торрент-трекер NNM-Club -> Зарубежное кино -> Фильмы в оригинале (HD)
Автор Сообщение
smaster67 ®
Модератор Видео
Покровитель талантов Uploader 300+
Стаж: 7 лет 8 мес.
Сообщений: 6583
Ratio: 192,242
Поблагодарили: 189664
100%
Уиджи. Проклятие доски дьявола / Ouija: Origin of Evil (2016) BDRemux [H.264/1080p] [EN / EN, Fr, Sp Sub]

Производство: Япония, США
Жанр: ужасы, триллер

Режиссер: Майк Флэнеган
Актеры: Анналиса Бассо, Элизабет Ризер, Лулу Уилсон, Генри Томас, Паркер Мак, Холли Чарлтон, Алексис Дж. Залл, Даг Джонс, Кейт Сигел, Сэм Андерсон, Челси Гонзалез, Линкольн Мелчер

Описание:
Спиритическая доска Уиджи никогда не была просто игрой. Она служила порталом в мир мертвых. Столетиями она служила вратами между миром живых и царством мертвых. Но однажды духи выйдут из-под контроля, и первородное зло овладеет душой ребенка...



Продолжительность: 01:38:54
Качество видео: BDRemux
Перевод: Отсутствует
Язык озвучки: Английский
Язык субтитров: английский, испанский, французский
Вид субтитров: Вшитые

Видео: AVC, 1920x1080 (16:9), 31779 kbps, 23,976 fps, 0,639 bpp
Аудио: английский / DTS-HD / 5.1 / 48 kHz / 3455 kbps / 24 bit (Core: 5.1 / 48 kHz / 1509 kbps / 24 bit)
Код: выделить все
General
Unique ID                               Ouija.Origin.of.Evil.2016.REMUX.1080p.BluRay.AVC.DTS-HD.MA.5.1-iFT.mkv
Format                                   : Matroska
Format version                           : Version 4 / Version 2
File size                                : 24.4 GiB
Duration                                 : 1 h 38 min
Overall bit rate mode                    : Variable
Overall bit rate                         : 35.3 Mb/s
Encoded date                             : UTC 2017-01-08 04:04:47
Writing application                      : mkvmerge v8.9.0 ('Father Daughter') 64bit
Writing library                          : libebml v1.3.3 + libmatroska v1.4.4

Video
ID                                       : 1
Format                                   : AVC
Format/Info                              : Advanced Video Codec
Format profile                           : High@L4.1
Format settings, CABAC                   : Yes
Format settings, ReFrames                : 4 frames
Codec ID                                 : V_MPEG4/ISO/AVC
Duration                                 : 1 h 38 min
Bit rate mode                            : Variable
Bit rate                                 : 31.8 Mb/s
Maximum bit rate                         : 35.0 Mb/s
Width                                    : 1 920 pixels
Height                                   : 1 080 pixels
Display aspect ratio                     : 16:9
Frame rate mode                          : Constant
Frame rate                               : 23.976 (24000/1001) FPS
Color space                              : YUV
Chroma subsampling                       : 4:2:0
Bit depth                                : 8 bits
Scan type                                : Progressive
Bits/(Pixel*Frame)                       : 0.639
Stream size                              : 22.0 GiB (90%)
Title                                    : Ouija.Origin.of.Evil.2016.REMUX.1080p.BluRay.AVC.DTS-HD.MA.5.1-iFT
Language                                 : English
Default                                  : Yes
Forced                                   : No

Audio
ID                                       : 2
Format                                   : DTS
Format/Info                              : Digital Theater Systems
Format profile                           : MA / Core
Mode                                     : 16
Format settings, Endianness              : Big
Codec ID                                 : A_DTS
Duration                                 : 1 h 38 min
Bit rate mode                            : Variable / Constant
Bit rate                                 : 3 455 kb/s / 1 509 kb/s
Channel(s)                               : 6 channels
Channel positions                        : Front: L C R, Side: L R, LFE
Sampling rate                            : 48.0 kHz
Frame rate                               : 93.750 FPS (512 spf)
Bit depth                                : 24 bits
Compression mode                         : Lossless / Lossy
Stream size                              : 2.39 GiB (10%)
Title                                    : English
Language                                 : English
Default                                  : Yes
Forced                                   : No

Text #1
ID                                       : 3
Format                                   : PGS
Muxing mode                              : zlib
Codec ID                                 : S_HDMV/PGS
Codec ID/Info                            : Picture based subtitle format used on BDs/HD-DVDs
Duration                                 : 1 h 38 min
Bit rate                                 : 9 049 b/s
Count of elements                        : 2324
Stream size                              : 6.35 MiB (0%)
Title                                    : English-PGS
Language                                 : English
Default                                  : Yes
Forced                                   : No

Text #2
ID                                       : 4
Format                                   : PGS
Muxing mode                              : zlib
Codec ID                                 : S_HDMV/PGS
Codec ID/Info                            : Picture based subtitle format used on BDs/HD-DVDs
Duration                                 : 1 h 38 min
Bit rate                                 : 7 823 b/s
Count of elements                        : 2267
Stream size                              : 5.52 MiB (0%)
Title                                    : Spanish-PGS
Language                                 : Spanish
Default                                  : No
Forced                                   : No

Text #3
ID                                       : 5
Format                                   : PGS
Muxing mode                              : zlib
Codec ID                                 : S_HDMV/PGS
Codec ID/Info                            : Picture based subtitle format used on BDs/HD-DVDs
Duration                                 : 1 h 38 min
Bit rate                                 : 7 691 b/s
Count of elements                        : 2104
Stream size                              : 5.42 MiB (0%)
Title                                    : French-PGS
Language                                 : French
Default                                  : No
Forced                                   : No

Menu
00:00:00.000                             : en:Chapter 01
00:05:30.747                             : en:Chapter 02
00:09:12.468                             : en:Chapter 03
00:14:19.525                             : en:Chapter 04
00:21:37.879                             : en:Chapter 05
00:25:24.314                             : en:Chapter 06
00:30:09.849                             : en:Chapter 07
00:35:53.317                             : en:Chapter 08
00:39:04.383                             : en:Chapter 09
00:43:53.464                             : en:Chapter 10
00:48:49.676                             : en:Chapter 11
00:55:11.683                             : en:Chapter 12
00:58:47.607                             : en:Chapter 13
01:05:27.715                             : en:Chapter 14
01:10:46.283                             : en:Chapter 15
01:14:26.420                             : en:Chapter 16
01:18:25.075                             : en:Chapter 17
01:21:48.403                             : en:Chapter 18
01:27:42.840                             : en:Chapter 19
01:31:03.291                             : en:Chapter 20
01:38:54.511                             : en:Chapter 21

Скриншоты:



Все одноименные релизы в Клубе

Время раздачи: с 13:00 до 23:00
[NNMClub.to]_Ouija.Origin.of.Evil.2016.REMUX.1080p.BluRay.AVC.DTS-HD.MA.5.1-iFT.mkv.torrent
 Торрент: Золотая раздача  Зарегистрирован
 
Примагнититься
Free Leech
Зарегистрируйтесь и скачайте торрент!
122 KB
 Зарегистрирован:   09 Янв 2017 10:06:02
 Размер:   24,4 GB  (
 Рейтинг:    (Голосов: 5)
 Поблагодарили:   35
 Проверка:   Оформление проверено модератором 09 Янв 2017 10:06:34
Как cкачать  ·  Как раздать  ·  Правильно оформить  ·  Поднять ратио!  
Показать сообщения:   
Начать новую тему   Ответить на тему    Торрент-трекер NNM-Club -> Зарубежное кино -> Фильмы в оригинале (HD) Часовой пояс: GMT + 3
Страница 1 из 1