Интеллигентный торрент-трекер
canvas not supported
Нас вместе: 4 202 203

R. Carlos Nakai & Will Clipman - Awakening The Fire (2013) [FLAC|Lossless|tracks + .cue] <New Age, Flute>


 
 
RSS
Начать новую тему   Ответить на тему    Торрент-трекер NNM-Club -> Other Styles -> New Age/Meditative/Relax (Lossless)
Автор Сообщение
Svetojar ®
Стаж: 1 мес. 11 дней
Сообщений: 132
Ratio: 84,776
Поблагодарили: 4798
100%
Откуда: Тюмень
R. Carlos Nakai & Will Clipman - Awakening The Fire (2013)
Год: 2013
Жанр: New Age, Flute
Издание: Canyon Records - CR-7108
Продолжительность: 01:01:15

Кодек: FLAC
Битрейт: Lossless
Тип рипа: tracks + .cue

Треклист:
01. Oasis
02. Kindling the Essence
03. Endless Journey
04. First Morning
05. Portal
06. Shaman's Trance
07. Caldera
08. Standing Stones
09. The Fountain
10. Convergence
foobar2000 1.3.14 / Замер динамического диапазона (DR) 1.1.1
Дата отчёта: 2017-01-10 00:30:48

--------------------------------------------------------------------------------
Анализ: R. Carlos Nakai & Will Clipman / Awakening the Fire
--------------------------------------------------------------------------------

DR Пики RMS Продолжительность трека
--------------------------------------------------------------------------------
DR11 -0.20 дБ -13.24 дБ 5:53 01-Oasis
DR13 -0.20 дБ -15.21 дБ 6:17 02-Kindling the Essence
DR11 -0.20 дБ -14.53 дБ 6:41 03-Endless Journey
DR12 -0.20 дБ -15.89 дБ 6:54 04-First Morning
DR10 -3.88 дБ -17.08 дБ 6:05 05-Portal
DR12 -0.24 дБ -16.18 дБ 6:09 06-Shaman's Trance
DR11 -0.20 дБ -15.13 дБ 6:40 07-Caldera
DR14 -0.20 дБ -17.71 дБ 6:02 08-Standing Stones
DR12 -0.20 дБ -14.63 дБ 5:46 09-The Fountain
DR13 -0.20 дБ -14.83 дБ 4:48 10-Convergence
--------------------------------------------------------------------------------

Количество треков: 10
Реальные значения DR: DR12

Частота: 44100 Гц
Каналов: 2
Разрядность: 16
Битрейт: 615 кбит/с
Кодек: FLAC
================================================================================
YouTube
Время раздачи: Пн-Вс с 22:00 до 07:00 (до появления первых 3-5 скачавших)


Поглощение/вытеснение
Только с согласия релизера

D0G
[NNMClub.to]_R. Carlos Nakai & Will Clipman - Awakening the Fire [2013].torrent
 Торрент:   Зарегистрирован
 
Примагнититься
Free Leech
Зарегистрируйтесь и скачайте торрент!
12,5 KB
 Зарегистрирован:   09 Янв 2017 22:37:07
 Размер:   279 MB  (
 Рейтинг:    (Голосов: 8)
 Поблагодарили:   45
 Проверка:   Оформление проверено модератором 10 Янв 2017 00:00:15
Как cкачать  ·  Как раздать  ·  Правильно оформить  ·  Поднять ратио!  
Показать сообщения:   
Начать новую тему   Ответить на тему    Торрент-трекер NNM-Club -> Other Styles -> New Age/Meditative/Relax (Lossless) Часовой пояс: GMT + 3
Страница 1 из 1