Интеллигентный торрент-трекер
canvas not supported
Нас вместе: 4 198 406

Loess - Discography 7 Releases (2001-2009) [FLAC|Lossless|tracks+.cue, tracks] <Abstract, IDM, Leftfiel, Downtempo, Ambient>


 
 
RSS
Начать новую тему   Ответить на тему    Торрент-трекер NNM-Club -> Electronic -> IDM (Lossless)
Автор Сообщение
vilator ®
Модератор Музыки
RG Музыки
 
Стаж: 7 лет 9 мес.
Сообщений: 5496
Ratio: 113,626
Поблагодарили: 106776
100%
Откуда: Minsk
pirates.png
Loess Discography

Loess - дуэт Айэна Пулмана (Ian Pullman) и Клэя Эмерсона (Clay Emerson), основанный в 1999 в г. Филадельфия, США.
Жанр: Abstract, IDM, Leftfiel, Downtempo, Ambient • Страна: US • Год: 2001-2009 • Тип издания: CD, Vinyl • Лейбл: Toytronic, Nonresponse, n5MD
Аудиокодек: FLAC (*.flac) • Тип рипа: tracks+.cue, tracks • Продолжительность: 06:33:41 • Источник: What, Waffles • Наличие сканов: Да
Треклист:
Год выпуска: 2001
Продолжительность: 00:20:56
Треклист:

01. alt.second.twelve (06:31)
02. 2nd.twelve.adm (06:46)
03. 2nd.twelve.amb (07:39)

X Lossless Decoder version 20130720 (144.0)

XLD extraction logfile from 2013-10-12 16:15:00 +0100

Loess / Second Twelve Triads

Used drive : TSSTcorp CDDVDW SE-S084C (revision TS01)
Media type : CD-Recordable

Ripper mode : XLD Secure Ripper
Disable audio cache : OK for the drive with a cache less than 1375KiB
Make use of C2 pointers : NO
Read offset correction : 6
Max retry count : 20
Gap status : Analyzed, Appended (except HTOA)

TOC of the extracted CD
Track | Start | Length | Start sector | End sector
---------------------------------------------------------
1 | 00:00:00 | 06:31:24 | 0 | 29348
2 | 06:31:24 | 06:46:26 | 29349 | 59824
3 | 13:17:50 | 07:39:00 | 59825 | 94249

AccurateRip Summary
Disc not found in AccurateRip DB.

All Tracks
Album gain : -8.83 dB
Peak : 0.998810
Statistics
Read error : 0
Jitter error (maybe fixed) : 0
Retry sector count : 0
Damaged sector count : 0

Track 01
Filename : /XLD Rips/Loess - Second Twelve Triads (2001) (FLAC)/01 alt.second.twelve.flac
Pre-gap length : 00:02:00

Track gain : -6.46 dB
Peak : 0.998810
CRC32 hash (test run) : E9E754A0
CRC32 hash : E9E754A0
CRC32 hash (skip zero) : 107D7F5C
AccurateRip v1 signature : 1E754DD7
AccurateRip v2 signature : 38EA5D09
->Track not present in AccurateRip database.
Statistics
Read error : 0
Jitter error (maybe fixed) : 0
Retry sector count : 0
Damaged sector count : 0

Track 02
Filename : /XLD Rips/Loess - Second Twelve Triads (2001) (FLAC)/02 2nd.twelve.adm.flac

Track gain : -9.43 dB
Peak : 0.998810
CRC32 hash (test run) : 4228E7E7
CRC32 hash : 4228E7E7
CRC32 hash (skip zero) : 6526ABB1
AccurateRip v1 signature : 3AD27264
AccurateRip v2 signature : F2CDF519
->Track not present in AccurateRip database.
Statistics
Read error : 0
Jitter error (maybe fixed) : 0
Retry sector count : 0
Damaged sector count : 0

Track 03
Filename : /XLD Rips/Loess - Second Twelve Triads (2001) (FLAC)/03 2nd.twelve.amb.flac

Track gain : -8.94 dB
Peak : 0.998810
CRC32 hash (test run) : 35D759A2
CRC32 hash : 35D759A2
CRC32 hash (skip zero) : 59451786
AccurateRip v1 signature : DB689ADE
AccurateRip v2 signature : E0D8C6F9
->Track not present in AccurateRip database.
Statistics
Read error : 0
Jitter error (maybe fixed) : 0
Retry sector count : 0
Damaged sector count : 0

No errors occurred

End of status report

-----BEGIN XLD SIGNATURE-----
4GZUsQ01f_j.MyexZCjeyoeWlnQWlkrp7l5K.almSz6RFT4luk6Rjx_R982nlBD4_g8lClOMnZfu2aAuXHTR4i6j17othkvJgfZpZ6O
-----END XLD SIGNATURE-----


TITLE "Second Twelve Triads"
PERFORMER "Loess"
REM DATE "2001"
REM DISCID 2A04E803
REM REPLAYGAIN_ALBUM_GAIN -8.83 dB
REM REPLAYGAIN_ALBUM_PEAK 0.998810
FILE "01 - alt.second.twelve.flac" WAVE
TRACK 01 AUDIO
TITLE "alt.second.twelve"
REM REPLAYGAIN_TRACK_GAIN -6.46 dB
REM REPLAYGAIN_TRACK_PEAK 0.998810
INDEX 01 00:00:00
FILE "02 - 2nd.twelve.adm.flac" WAVE
TRACK 02 AUDIO
TITLE "2nd.twelve.adm"
REM REPLAYGAIN_TRACK_GAIN -9.43 dB
REM REPLAYGAIN_TRACK_PEAK 0.998810
INDEX 01 00:00:00
FILE "03 - 2nd.twelve.amb.flac" WAVE
TRACK 03 AUDIO
TITLE "2nd.twelve.amb"
REM REPLAYGAIN_TRACK_GAIN -8.94 dB
REM REPLAYGAIN_TRACK_PEAK 0.998810
INDEX 01 00:00:00

Год выпуска: 2002
Продолжительность: 01:13:34
Треклист:

01. Chariv Canopy (02:30)
02. 2nd Twelve (07:40)
03. Maple Cill (03:31)
04. Pleuston (06:57)
05. Alluvium Edit (02:26)
06. Littoral (07:48)
07. Tone, 2 (05:52)
08. Spring Street (01:39)
09. Keflex (03:09)
10. Mosse (08:25)
11. 2nd 12 (Accelera Deck Mix) (03:51)
12. Woven (19:46)

Exact Audio Copy V1.3 from 2. September 2016

EAC extraction logfile from 15. December 2016, 10:41

Loess / Loess

Used drive : TSSTcorpCDDVDW SH-S203B Adapter: 1 ID: 0

Read mode : Secure
Utilize accurate stream : Yes
Defeat audio cache : Yes
Make use of C2 pointers : No

Read offset correction : 6
Overread into Lead-In and Lead-Out : No
Fill up missing offset samples with silence : Yes
Delete leading and trailing silent blocks : No
Null samples used in CRC calculations : Yes
Used interface : Native Win32 interface for Win NT & 2000
Gap handling : Appended to previous track

Used output format : User Defined Encoder
Selected bitrate : 896 kBit/s
Quality : High
Add ID3 tag : No
Command line compressor : C:\Program Files (x86)\Exact Audio Copy\FLAC\flac.exe
Additional command line options : -8 -e -V -T "ARTIST=%artist%" -T "TITLE=%title%" -T "ALBUM=%albumtitle%" -T "DATE=%year%" -T "TRACKNUMBER=%tracknr1%" -T "GENRE=%genre%" -T "PERFORMER=%albuminterpret%" -T "COMPOSER=%composer%" %haslyrics%--tag-from-file=LYRICS="%lyricsfile%"%haslyrics% -T "ALBUMARTIST=%albumartist%" -T "DISCNUMBER=%cdnumber%" -T "TOTALDISCS=%totalcds%" -T "TOTALTRACKS=%numtracks%" -T "COMMENT=%comment%" %source% -o %dest%

TOC of the extracted CD

Track | Start | Length | Start sector | End sector
---------------------------------------------------------
1 | 0:00.00 | 2:29.64 | 0 | 11238
2 | 2:29.64 | 7:39.57 | 11239 | 45720
3 | 10:09.46 | 3:30.73 | 45721 | 61543
4 | 13:40.44 | 6:57.09 | 61544 | 92827
5 | 20:37.53 | 2:26.23 | 92828 | 103800
6 | 23:04.01 | 7:48.09 | 103801 | 138909
7 | 30:52.10 | 5:52.01 | 138910 | 165310
8 | 36:44.11 | 1:39.10 | 165311 | 172745
9 | 38:23.21 | 3:08.67 | 172746 | 186912
10 | 41:32.13 | 8:24.38 | 186913 | 224750
11 | 49:56.51 | 3:51.17 | 224751 | 242092
12 | 53:47.68 | 19:45.42 | 242093 | 331009

Track 1

Filename C:\Rips\Loess - (2002) Loess [FLAC]\01 - Chariv Canopy.wav

Pre-gap length 0:00:02.00

Peak level 97.7 %
Extraction speed 4.5 X
Track quality 100.0 %
Test CRC 6240CB8E
Copy CRC 6240CB8E
Accurately ripped (confidence 3) [4C4ED6B5] (AR v2)
Copy OK

Track 2

Filename C:\Rips\Loess - (2002) Loess [FLAC]\02 - 2nd Twelve.wav

Peak level 97.7 %
Extraction speed 5.8 X
Track quality 100.0 %
Test CRC A78A5C28
Copy CRC A78A5C28
Accurately ripped (confidence 3) [4459E783] (AR v2)
Copy OK

Track 3

Filename C:\Rips\Loess - (2002) Loess [FLAC]\03 - Maple Cill.wav

Peak level 97.7 %
Extraction speed 6.0 X
Track quality 100.0 %
Test CRC 8798DA4C
Copy CRC 8798DA4C
Accurately ripped (confidence 3) [9E8A354E] (AR v2)
Copy OK

Track 4

Filename C:\Rips\Loess - (2002) Loess [FLAC]\04 - Pleuston.wav

Peak level 97.7 %
Extraction speed 7.0 X
Track quality 100.0 %
Test CRC D186BC6D
Copy CRC D186BC6D
Accurately ripped (confidence 3) [EBA7CDF0] (AR v2)
Copy OK

Track 5

Filename C:\Rips\Loess - (2002) Loess [FLAC]\05 - Alluvium Edit.wav

Peak level 34.6 %
Extraction speed 6.4 X
Track quality 100.0 %
Test CRC AE4459D4
Copy CRC AE4459D4
Accurately ripped (confidence 3) [35258F29] (AR v2)
Copy OK

Track 6

Filename C:\Rips\Loess - (2002) Loess [FLAC]\06 - Littoral.wav

Peak level 97.7 %
Extraction speed 7.0 X
Track quality 99.9 %
Test CRC D1A450F3
Copy CRC D1A450F3
Accurately ripped (confidence 3) [3FB3690D] (AR v2)
Copy OK

Track 7

Filename C:\Rips\Loess - (2002) Loess [FLAC]\07 - Tone, 2.wav

Peak level 100.0 %
Extraction speed 8.3 X
Track quality 100.0 %
Test CRC F6BE2CA5
Copy CRC F6BE2CA5
Accurately ripped (confidence 3) [6CBF0BA6] (AR v2)
Copy OK

Track 8

Filename C:\Rips\Loess - (2002) Loess [FLAC]\08 - Spring Street.wav

Peak level 37.6 %
Extraction speed 6.8 X
Track quality 100.0 %
Test CRC D205DF55
Copy CRC D205DF55
Accurately ripped (confidence 3) [13C37644] (AR v2)
Copy OK

Track 9

Filename C:\Rips\Loess - (2002) Loess [FLAC]\09 - Keflex.wav

Peak level 97.7 %
Extraction speed 6.1 X
Track quality 99.9 %
Test CRC FACD2202
Copy CRC FACD2202
Accurately ripped (confidence 3) [C467D868] (AR v2)
Copy OK

Track 10

Filename C:\Rips\Loess - (2002) Loess [FLAC]\10 - Mosse.wav

Peak level 61.6 %
Extraction speed 9.3 X
Track quality 100.0 %
Test CRC 5F27AFCC
Copy CRC 5F27AFCC
Accurately ripped (confidence 3) [3C69811E] (AR v2)
Copy OK

Track 11

Filename C:\Rips\Loess - (2002) Loess [FLAC]\11 - 2nd 12 (Accelera Deck Mix).wav

Peak level 61.8 %
Extraction speed 9.0 X
Track quality 100.0 %
Test CRC FBE7E13E
Copy CRC FBE7E13E
Accurately ripped (confidence 3) [DC95035D] (AR v2)
Copy OK

Track 12

Filename C:\Rips\Loess - (2002) Loess [FLAC]\12 - Woven.wav

Peak level 61.6 %
Extraction speed 10.3 X
Track quality 99.9 %
Test CRC C252C75C
Copy CRC C252C75C
Accurately ripped (confidence 3) [8E92FE52] (AR v2)
Copy OK

All tracks accurately ripped

No errors occurred

End of status report

---- CUETools DB Plugin V2.1.6

[CTDB TOCID: Our.Zzw55qAJPecRd8O2qnhc1UE-] found
Submit result: Our.Zzw55qAJPecRd8O2qnhc1UE- has been confirmed
Track | CTDB Status
1 | (3/3) Accurately ripped
2 | (3/3) Accurately ripped
3 | (3/3) Accurately ripped
4 | (3/3) Accurately ripped
5 | (3/3) Accurately ripped
6 | (3/3) Accurately ripped
7 | (3/3) Accurately ripped
8 | (3/3) Accurately ripped
9 | (3/3) Accurately ripped
10 | (3/3) Accurately ripped
11 | (3/3) Accurately ripped
12 | (3/3) Accurately ripped

==== Log checksum E99D1708C200FD6C837AD0432AC193160C938936610A76BE8A9AE0A6825B6AD5 ====


REM GENRE Electronic
REM DATE 2002
REM DISCID A3113D0C
REM COMMENT "ExactAudioCopy v1.3"
PERFORMER "Loess"
TITLE "Loess"
REM COMPOSER ""
FILE "01 - Chariv Canopy.wav" WAVE
TRACK 01 AUDIO
TITLE "Chariv Canopy"
PERFORMER "Loess"
REM COMPOSER ""
INDEX 01 00:00:00
FILE "02 - 2nd Twelve.wav" WAVE
TRACK 02 AUDIO
TITLE "2nd Twelve"
PERFORMER "Loess"
REM COMPOSER ""
INDEX 01 00:00:00
FILE "03 - Maple Cill.wav" WAVE
TRACK 03 AUDIO
TITLE "Maple Cill"
PERFORMER "Loess"
REM COMPOSER ""
INDEX 01 00:00:00
FILE "04 - Pleuston.wav" WAVE
TRACK 04 AUDIO
TITLE "Pleuston"
PERFORMER "Loess"
REM COMPOSER ""
INDEX 01 00:00:00
FILE "05 - Alluvium Edit.wav" WAVE
TRACK 05 AUDIO
TITLE "Alluvium Edit"
PERFORMER "Loess"
REM COMPOSER ""
INDEX 01 00:00:00
FILE "06 - Littoral.wav" WAVE
TRACK 06 AUDIO
TITLE "Littoral"
PERFORMER "Loess"
REM COMPOSER ""
INDEX 01 00:00:00
FILE "07 - Tone, 2.wav" WAVE
TRACK 07 AUDIO
TITLE "Tone, 2"
PERFORMER "Loess"
REM COMPOSER ""
INDEX 01 00:00:00
FILE "08 - Spring Street.wav" WAVE
TRACK 08 AUDIO
TITLE "Spring Street"
PERFORMER "Loess"
REM COMPOSER ""
INDEX 01 00:00:00
FILE "09 - Keflex.wav" WAVE
TRACK 09 AUDIO
TITLE "Keflex"
PERFORMER "Loess"
REM COMPOSER ""
INDEX 01 00:00:00
FILE "10 - Mosse.wav" WAVE
TRACK 10 AUDIO
TITLE "Mosse"
PERFORMER "Loess"
REM COMPOSER ""
INDEX 01 00:00:00
FILE "11 - 2nd 12 (Accelera Deck Mix).wav" WAVE
TRACK 11 AUDIO
TITLE "2nd 12 (Accelera Deck Mix)"
PERFORMER "Loess"
REM COMPOSER ""
INDEX 01 00:00:00
FILE "12 - Woven.wav" WAVE
TRACK 12 AUDIO
TITLE "Woven"
PERFORMER "Loess"
REM COMPOSER ""
INDEX 01 00:00:00

Год выпуска: 2003
Продолжительность: 00:32:36
Треклист:

01. Retinue (05:23)
02. Sofar (04:28)
03. Viscer (06:20)
04. Alt.Tone.Two (08:10)
05. Sixt (08:15)

-----------------------

DON'T MODIFY THIS FILE

-----------------------

PERFORMER: auCDtect Task Manager, ver. 1.5.1RC6 build 1.5.1.7
Copyright (c) 2008-2010 y-soft. All rights reserved
http://y-soft.org

ANALYZER: auCDtect: CD records authenticity detector, version 0.8.2
Copyright (c) 2004 Oleg Berngardt. All rights reserved.
Copyright (c) 2004 Alexander Djourik. All rights reserved.

FILE: 05. Sixt.flac
Size: 40470291 Hash: 054E1E8C40A6F69594A3839B278BAB8C Accuracy: -m0
Conclusion: CDDA 100%
Signature: 199BEB64BED192C4DB18A3D7FF8C6B706844997C
FILE: 04. Alt.Tone.Two.flac
Size: 36167970 Hash: 33749D260091B71C7D2B894D29324D58 Accuracy: -m0
Conclusion: CDDA 100%
Signature: 2E42993FBC581557882F15E9347DB4AF8C3ED523
FILE: 03. Viscer.flac
Size: 34667275 Hash: 589748A5A235CDA0B6063D97C12B493D Accuracy: -m0
Conclusion: CDDA 100%
Signature: 59B059457335861202E7261437E1021D21064F63
FILE: 02. Sofar.flac
Size: 28601280 Hash: 09F17FCF44C94030ACCDC782BCCEF5AC Accuracy: -m0
Conclusion: CDDA 100%
Signature: 1A0D8CB412AD1B0F74B3C7B22A64478C460EBAD5
FILE: 01. Retinue.flac
Size: 27826438 Hash: 2E0D0187B75A3ED4316D84F7B90E8567 Accuracy: -m0
Conclusion: CDDA 100%
Signature: C0EBAC9595CEF77DEC36D397A02291B6E68A5E9C

Год выпуска: 2003
Продолжительность: 00:12:00
Треклист:

01. Nomon (06:02)
02. Schoen (05:58)

-----------------------

DON'T MODIFY THIS FILE

-----------------------

PERFORMER: auCDtect Task Manager, ver. 1.5.1RC6 build 1.5.1.7
Copyright (c) 2008-2010 y-soft. All rights reserved
http://y-soft.org

ANALYZER: auCDtect: CD records authenticity detector, version 0.8.2
Copyright (c) 2004 Oleg Berngardt. All rights reserved.
Copyright (c) 2004 Alexander Djourik. All rights reserved.

FILE: 02. Schoen.flac
Size: 33453023 Hash: C63D245580C41837423BCE1C0E921659 Accuracy: -m0
Conclusion: CDDA 43%
Signature: 60090B9A2416440EC98DA956D5105DC6E22E5732
FILE: 01. Nomon.flac
Size: 34231045 Hash: CBB4454A013111FF58451257AFB3BA59 Accuracy: -m0
Conclusion: CDDA 49%
Signature: A7E8C0938A23B163E4630D71CE25FA7AF124E445

Год выпуска: 2004
Продолжительность: 01:01:01+00:51:43
Треклист:

CD1
01. Miles Tilmann - Middle Fields (04:51)
02. Miles Tilmann - The Big Swim (03:55)
03. Miles Tilmann - Through The Tubes (05:24)
04. Miles Tilmann - Particle 3 (03:53)
05. Miles Tilmann - Smallest Flame (03:53)
06. Miles Tilmann - Mid Point (06:29)
07. Loess - Retinue (05:23)
08. Loess - Sofar (04:28)
09. Loess - Viscer (06:20)
10. Loess - Alt.Tone.Two (08:10)
11. Loess - Sixt (08:15)

CD2
01. Low Profile Society - In (03:40)
02. Low Profile Society - Example 2 (03:19)
03. Low Profile Society - Example 3 (05:55)
04. Low Profile Society - Example 4 (03:36)
05. Low Profile Society - Example 5 (01:04)
06. Low Profile Society - Example 6 (06:56)
07. Low Profile Society - Example 7 (03:25)
08. Low Profile Society - Example 8 (03:44)
09. Low Profile Society - Out (03:01)
10. Low Profile Society - Example 10 (04:00)
11. Low Profile Society - Example 11 (05:59)
12. Low Profile Society - Example 12 (03:29)
13. Low Profile Society - Example 13 (03:35)

Exact Audio Copy V0.99 prebeta 5 from 4. May 2009

EAC extraction logfile from 19. October 2009, 0:36

Various / 3D Concepts CD1

Used drive : HL-DT-STDVDRAM GMA-4082N Adapter: 0 ID: 0

Read mode : Secure
Utilize accurate stream : Yes
Defeat audio cache : Yes
Make use of C2 pointers : No

Read offset correction : 667
Overread into Lead-In and Lead-Out : No
Fill up missing offset samples with silence : Yes
Delete leading and trailing silent blocks : No
Null samples used in CRC calculations : Yes
Used interface : Installed external ASPI interface
Gap handling : Appended to previous track

Used output format : User Defined Encoder
Selected bitrate : 320 kBit/s
Quality : High
Add ID3 tag : No
Command line compressor : C:\Program Files\Exact Audio Copy\FLAC\FLAC.EXE
Additional command line options : -V -8 -T "artist=%a" -T "title=%t" -T "album=%g" -T "date=%y" -T "tracknumber=%n" -T "genre=%m" %s

TOC of the extracted CD

Track | Start | Length | Start sector | End sector
---------------------------------------------------------
1 | 0:00.00 | 4:51.28 | 0 | 21852
2 | 4:51.28 | 3:55.12 | 21853 | 39489
3 | 8:46.40 | 5:24.37 | 39490 | 63826
4 | 14:11.02 | 3:53.19 | 63827 | 81320
5 | 18:04.21 | 3:53.37 | 81321 | 98832
6 | 21:57.58 | 6:29.01 | 98833 | 128008
7 | 28:26.59 | 5:22.59 | 128009 | 152217
8 | 33:49.43 | 4:28.24 | 152218 | 172341
9 | 38:17.67 | 6:20.02 | 172342 | 200843
10 | 44:37.69 | 8:10.35 | 200844 | 237628
11 | 52:48.29 | 8:14.59 | 237629 | 274737

Track 1

Filename G:\1_My Music\VUZE Uploads\3D Concepts CD1 (2004)\01 - Miles Tilman - Middle Fields.wav

Pre-gap length 0:00:02.00

Peak level 96.5 %
Track quality 100.0 %
Test CRC 745E354E
Copy CRC 745E354E
Accurately ripped (confidence 3) [0764ECA8]
Copy OK

Track 2

Filename G:\1_My Music\VUZE Uploads\3D Concepts CD1 (2004)\02 - Miles Tilman - The Big Swim.wav

Pre-gap length 0:00:02.00

Peak level 96.5 %
Track quality 100.0 %
Test CRC 1F693A6A
Copy CRC 1F693A6A
Accurately ripped (confidence 3) [960BCE1E]
Copy OK

Track 3

Filename G:\1_My Music\VUZE Uploads\3D Concepts CD1 (2004)\03 - Miles Tilman - Through The Tubes.wav

Pre-gap length 0:00:02.00

Peak level 96.5 %
Track quality 100.0 %
Test CRC 67FAA5A7
Copy CRC 67FAA5A7
Accurately ripped (confidence 3) [DF25A6AB]
Copy OK

Track 4

Filename G:\1_My Music\VUZE Uploads\3D Concepts CD1 (2004)\04 - Miles Tilman - Particle 3.wav

Pre-gap length 0:00:02.00

Peak level 96.5 %
Track quality 100.0 %
Test CRC FEF1A82A
Copy CRC FEF1A82A
Accurately ripped (confidence 3) [734D0EEC]
Copy OK

Track 5

Filename G:\1_My Music\VUZE Uploads\3D Concepts CD1 (2004)\05 - Miles Tilman - Smallest Flame.wav

Pre-gap length 0:00:02.00

Peak level 96.5 %
Track quality 100.0 %
Test CRC ECFA9FAD
Copy CRC ECFA9FAD
Accurately ripped (confidence 3) [451DB7E8]
Copy OK

Track 6

Filename G:\1_My Music\VUZE Uploads\3D Concepts CD1 (2004)\06 - Miles Tilman - Mid Point.wav

Pre-gap length 0:00:02.00

Peak level 87.8 %
Track quality 100.0 %
Test CRC 8326272B
Copy CRC 8326272B
Accurately ripped (confidence 3) [DC0A75C5]
Copy OK

Track 7

Filename G:\1_My Music\VUZE Uploads\3D Concepts CD1 (2004)\07 - Loess - Retinue.wav

Pre-gap length 0:00:02.00

Peak level 96.5 %
Track quality 100.0 %
Test CRC AF3F5AF6
Copy CRC AF3F5AF6
Accurately ripped (confidence 3) [A310B057]
Copy OK

Track 8

Filename G:\1_My Music\VUZE Uploads\3D Concepts CD1 (2004)\08 - Loess - Sofar.wav

Pre-gap length 0:00:02.00

Peak level 96.5 %
Track quality 99.9 %
Test CRC BE8D2CD4
Copy CRC BE8D2CD4
Accurately ripped (confidence 3) [8E12093B]
Copy OK

Track 9

Filename G:\1_My Music\VUZE Uploads\3D Concepts CD1 (2004)\09 - Loess - Viscer.wav

Pre-gap length 0:00:02.00

Peak level 96.5 %
Track quality 100.0 %
Test CRC FF4BFFFC
Copy CRC FF4BFFFC
Accurately ripped (confidence 3) [CD33E885]
Copy OK

Track 10

Filename G:\1_My Music\VUZE Uploads\3D Concepts CD1 (2004)\10 - Loess - Alt.Tone.Two.wav

Pre-gap length 0:00:02.00

Peak level 96.5 %
Track quality 99.9 %
Test CRC E8B8C0D8
Copy CRC E8B8C0D8
Accurately ripped (confidence 3) [6BEA6139]
Copy OK

Track 11

Filename G:\1_My Music\VUZE Uploads\3D Concepts CD1 (2004)\11 - Loess - Sixt.wav

Pre-gap length 0:00:02.00

Peak level 96.5 %
Track quality 99.9 %
Test CRC 42E77DC1
Copy CRC 42E77DC1
Accurately ripped (confidence 3) [AC253BE0]
Copy OK

All tracks accurately ripped

No errors occurred

End of status report
------------------------------------------------------------------------

Exact Audio Copy V0.99 prebeta 5 from 4. May 2009

EAC extraction logfile from 19. October 2009, 1:27

Various / 3D Concepts CD2

Used drive : HL-DT-STDVDRAM GMA-4082N Adapter: 0 ID: 0

Read mode : Secure
Utilize accurate stream : Yes
Defeat audio cache : Yes
Make use of C2 pointers : No

Read offset correction : 667
Overread into Lead-In and Lead-Out : No
Fill up missing offset samples with silence : Yes
Delete leading and trailing silent blocks : No
Null samples used in CRC calculations : Yes
Used interface : Installed external ASPI interface
Gap handling : Appended to previous track

Used output format : User Defined Encoder
Selected bitrate : 320 kBit/s
Quality : High
Add ID3 tag : No
Command line compressor : C:\Program Files\Exact Audio Copy\FLAC\FLAC.EXE
Additional command line options : -V -8 -T "artist=%a" -T "title=%t" -T "album=%g" -T "date=%y" -T "tracknumber=%n" -T "genre=%m" %s

TOC of the extracted CD

Track | Start | Length | Start sector | End sector
---------------------------------------------------------
1 | 0:00.00 | 3:40.19 | 0 | 16518
2 | 3:40.19 | 3:19.11 | 16519 | 31454
3 | 6:59.30 | 5:55.15 | 31455 | 58094
4 | 12:54.45 | 3:36.17 | 58095 | 74311
5 | 16:30.62 | 1:04.25 | 74312 | 79136
6 | 17:35.12 | 6:56.16 | 79137 | 110352
7 | 24:31.28 | 3:25.04 | 110353 | 125731
8 | 27:56.32 | 3:44.23 | 125732 | 142554
9 | 31:40.55 | 3:01.34 | 142555 | 156163
10 | 34:42.14 | 3:59.39 | 156164 | 174127
11 | 38:41.53 | 5:59.36 | 174128 | 201088
12 | 44:41.14 | 3:29.32 | 201089 | 216795
13 | 48:10.46 | 3:35.09 | 216796 | 232929

Track 1

Filename G:\1_My Music\VUZE Uploads\3D Concepts CD2 (2004)\01 - Low Profile Society - In.wav

Pre-gap length 0:00:02.00

Peak level 96.5 %
Track quality 100.0 %
Test CRC 352D8712
Copy CRC 352D8712
Accurately ripped (confidence 3) [44FF20EA]
Copy OK

Track 2

Filename G:\1_My Music\VUZE Uploads\3D Concepts CD2 (2004)\02 - Low Profile Society - Example 2.wav

Pre-gap length 0:00:02.00

Peak level 96.5 %
Track quality 100.0 %
Test CRC 92F0081C
Copy CRC 92F0081C
Accurately ripped (confidence 3) [B70FF09E]
Copy OK

Track 3

Filename G:\1_My Music\VUZE Uploads\3D Concepts CD2 (2004)\03 - Low Profile Society - Example 3.wav

Pre-gap length 0:00:02.00

Peak level 91.1 %
Track quality 100.0 %
Test CRC BAC31781
Copy CRC BAC31781
Accurately ripped (confidence 3) [64D3457B]
Copy OK

Track 4

Filename G:\1_My Music\VUZE Uploads\3D Concepts CD2 (2004)\04 - Low Profile Society - Example 4.wav

Pre-gap length 0:00:02.00

Peak level 90.4 %
Track quality 100.0 %
Test CRC CB4A3D91
Copy CRC CB4A3D91
Accurately ripped (confidence 3) [5C248386]
Copy OK

Track 5

Filename G:\1_My Music\VUZE Uploads\3D Concepts CD2 (2004)\05 - Low Profile Society - Example 5.wav

Pre-gap length 0:00:02.00

Peak level 88.8 %
Track quality 100.0 %
Test CRC 727904F2
Copy CRC 727904F2
Accurately ripped (confidence 3) [41FF9B0B]
Copy OK

Track 6

Filename G:\1_My Music\VUZE Uploads\3D Concepts CD2 (2004)\06 - Low Profile Society - Example 6.wav

Pre-gap length 0:00:02.00

Peak level 96.5 %
Track quality 100.0 %
Test CRC 5B70358B
Copy CRC 5B70358B
Accurately ripped (confidence 3) [8D8471EE]
Copy OK

Track 7

Filename G:\1_My Music\VUZE Uploads\3D Concepts CD2 (2004)\07 - Low Profile Society - Example 7.wav

Pre-gap length 0:00:02.00

Peak level 96.5 %
Track quality 100.0 %
Test CRC 3FFF3264
Copy CRC 3FFF3264
Accurately ripped (confidence 3) [7FBBDD5C]
Copy OK

Track 8

Filename G:\1_My Music\VUZE Uploads\3D Concepts CD2 (2004)\08 - Low Profile Society - Example 8.wav

Pre-gap length 0:00:02.00

Peak level 96.5 %
Track quality 100.0 %
Test CRC 630A06B8
Copy CRC 630A06B8
Accurately ripped (confidence 3) [2ABE39E3]
Copy OK

Track 9

Filename G:\1_My Music\VUZE Uploads\3D Concepts CD2 (2004)\09 - Low Profile Society - Out.wav

Pre-gap length 0:00:02.00

Peak level 96.5 %
Track quality 100.0 %
Test CRC 1D21A97C
Copy CRC 1D21A97C
Accurately ripped (confidence 3) [49717870]
Copy OK

Track 10

Filename G:\1_My Music\VUZE Uploads\3D Concepts CD2 (2004)\10 - Low Profile Society - Example 10.wav

Pre-gap length 0:00:02.00

Peak level 96.4 %
Track quality 100.0 %
Test CRC 5E730151
Copy CRC 5E730151
Accurately ripped (confidence 3) [2FF2B731]
Copy OK

Track 11

Filename G:\1_My Music\VUZE Uploads\3D Concepts CD2 (2004)\11 - Low Profile Society - Example 11.wav

Pre-gap length 0:00:02.00

Peak level 96.5 %
Track quality 100.0 %
Test CRC 541CA919
Copy CRC 541CA919
Accurately ripped (confidence 3) [4BAA63CB]
Copy OK

Track 12

Filename G:\1_My Music\VUZE Uploads\3D Concepts CD2 (2004)\12 - Low Profile Society - Example 12.wav

Pre-gap length 0:00:02.00

Peak level 86.0 %
Track quality 100.0 %
Test CRC 32FA38FF
Copy CRC 32FA38FF
Accurately ripped (confidence 3) [0660C4C5]
Copy OK

Track 13

Filename G:\1_My Music\VUZE Uploads\3D Concepts CD2 (2004)\13 - Low Profile Society - Example 13.wav

Pre-gap length 0:00:02.00

Peak level 96.5 %
Track quality 100.0 %
Test CRC 2EBF1330
Copy CRC 2EBF1330
Accurately ripped (confidence 3) [426F47B3]
Copy OK

All tracks accurately ripped

No errors occurred

End of status report


REM GENRE Electronic
REM DATE 2004
REM DISCID 9B0E4F0B
REM COMMENT "ExactAudioCopy v0.99pb5"
FILE "01 - Middle Fields.wav" WAVE
TRACK 01 AUDIO
FLAGS DCP
INDEX 01 00:00:00
TRACK 02 AUDIO
FLAGS DCP
INDEX 00 04:49:28
FILE "02 - The Big Swim.wav" WAVE
INDEX 01 00:00:00
TRACK 03 AUDIO
FLAGS DCP
INDEX 00 03:53:12
FILE "03 - Through The Tubes.wav" WAVE
INDEX 01 00:00:00
TRACK 04 AUDIO
FLAGS DCP
INDEX 00 05:22:37
FILE "04 - Particle 3.wav" WAVE
INDEX 01 00:00:00
TRACK 05 AUDIO
FLAGS DCP
INDEX 00 03:51:19
FILE "05 - Smallest Flame.wav" WAVE
INDEX 01 00:00:00
TRACK 06 AUDIO
FLAGS DCP
INDEX 00 03:51:37
FILE "06 - Mid Point.wav" WAVE
INDEX 01 00:00:00
TRACK 07 AUDIO
FLAGS DCP
INDEX 00 06:27:01
FILE "07 - Retinue.wav" WAVE
INDEX 01 00:00:00
TRACK 08 AUDIO
FLAGS DCP
INDEX 00 05:20:59
FILE "08 - Sofar.wav" WAVE
INDEX 01 00:00:00
TRACK 09 AUDIO
FLAGS DCP
INDEX 00 04:26:24
FILE "09 - Viscer.wav" WAVE
INDEX 01 00:00:00
TRACK 10 AUDIO
FLAGS DCP
INDEX 00 06:18:02
FILE "10 - Alt.Tone.Two.wav" WAVE
INDEX 01 00:00:00
TRACK 11 AUDIO
FLAGS DCP
INDEX 00 08:08:35
FILE "11 - Sixt.wav" WAVE
INDEX 01 00:00:00
------------------------------------------------------------------

REM GENRE Electronic
REM DATE 2004
REM DISCID B50C210D
REM COMMENT "ExactAudioCopy v0.99pb5"
FILE "01 - In.wav" WAVE
TRACK 01 AUDIO
FLAGS DCP
INDEX 01 00:00:00
TRACK 02 AUDIO
FLAGS DCP
INDEX 00 03:38:19
FILE "02 - Example 2.wav" WAVE
INDEX 01 00:00:00
TRACK 03 AUDIO
FLAGS DCP
INDEX 00 03:17:11
FILE "03 - Example 3.wav" WAVE
INDEX 01 00:00:00
TRACK 04 AUDIO
FLAGS DCP
INDEX 00 05:53:15
FILE "04 - Example 4.wav" WAVE
INDEX 01 00:00:00
TRACK 05 AUDIO
FLAGS DCP
INDEX 00 03:34:17
FILE "05 - Example 5.wav" WAVE
INDEX 01 00:00:00
TRACK 06 AUDIO
FLAGS DCP
INDEX 00 01:02:25
FILE "06 - Example 6.wav" WAVE
INDEX 01 00:00:00
TRACK 07 AUDIO
FLAGS DCP
INDEX 00 06:54:16
FILE "07 - Example 7.wav" WAVE
INDEX 01 00:00:00
TRACK 08 AUDIO
FLAGS DCP
INDEX 00 03:23:04
FILE "08 - Example 8.wav" WAVE
INDEX 01 00:00:00
TRACK 09 AUDIO
FLAGS DCP
INDEX 00 03:42:23
FILE "09 - Out.wav" WAVE
INDEX 01 00:00:00
TRACK 10 AUDIO
FLAGS DCP
INDEX 00 02:59:34
FILE "10 - Example 10.wav" WAVE
INDEX 01 00:00:00
TRACK 11 AUDIO
FLAGS DCP
INDEX 00 03:57:39
FILE "11 - Example 11.wav" WAVE
INDEX 01 00:00:00
TRACK 12 AUDIO
FLAGS DCP
INDEX 00 05:57:36
FILE "12 - Example 12.wav" WAVE
INDEX 01 00:00:00
TRACK 13 AUDIO
FLAGS DCP
INDEX 00 03:27:32
FILE "13 - Example 13.wav" WAVE
INDEX 01 00:00:00

Год выпуска: 2006
Продолжительность: 01:03:17
Треклист:

01. Brumal (03:25)
02. Greensland (08:42)
03. Creshiem (07:33)
04. Lomond (04:53)
05. Copse (00:55)
06. Sonde (07:17)
07. Wiebke (02:00)
08. Sororal (03:15)
09. Talus (05:58)
10. Veld (04:53)
11. Dasein (06:45)
12. III6 (07:41)

Exact Audio Copy V0.99 prebeta 4 from 23. January 2008

EAC extraction logfile from 14. April 2008, 11:24

Loess / Wind and Water

Used drive : TSSTcorpDVD+-RW TS-H653B Adapter: 1 ID: 0

Read mode : Secure
Utilize accurate stream : Yes
Defeat audio cache : Yes
Make use of C2 pointers : No

Read offset correction : 6
Overread into Lead-In and Lead-Out : No
Fill up missing offset samples with silence : Yes
Delete leading and trailing silent blocks : No
Null samples used in CRC calculations : Yes
Used interface : Installed external ASPI interface
Gap handling : Appended to previous track

Used output format : User Defined Encoder
Selected bitrate : 192 kBit/s
Quality : High
Add ID3 tag : No
Command line compressor : C:\Program Files\Exact Audio Copy\Flac\flac.exe
Additional command line options : -V -8 -T "artist=%a" -T "title=%t" -T "album=%g" -T "date=%y" -T "tracknumber=%n" -T "genre=%m" %s

TOC of the extracted CD

Track | Start | Length | Start sector | End sector
---------------------------------------------------------
1 | 0:00.00 | 3:25.09 | 0 | 15383
2 | 3:25.09 | 8:41.42 | 15384 | 54500
3 | 12:06.51 | 7:33.28 | 54501 | 88503
4 | 19:40.04 | 4:52.73 | 88504 | 110476
5 | 24:33.02 | 0:54.43 | 110477 | 114569
6 | 25:27.45 | 7:17.36 | 114570 | 147380
7 | 32:45.06 | 2:00.09 | 147381 | 156389
8 | 34:45.15 | 3:14.55 | 156390 | 170994
9 | 37:59.70 | 5:57.45 | 170995 | 197814
10 | 43:57.40 | 4:53.37 | 197815 | 219826
11 | 48:51.02 | 6:44.69 | 219827 | 250195
12 | 55:35.71 | 7:41.29 | 250196 | 284799

Track 1

Filename C:\A\Loess - Wind And Water [flac]\01 - Brumal.wav

Pre-gap length 0:00:02.00

Peak level 97.5 %
Track quality 100.0 %
Test CRC C7D3CB0B
Copy CRC C7D3CB0B
Track not present in AccurateRip database
Copy OK

Track 2

Filename C:\A\Loess - Wind And Water [flac]\02 - Greensland.wav

Peak level 95.2 %
Track quality 100.0 %
Test CRC 21EE008E
Copy CRC 21EE008E
Track not present in AccurateRip database
Copy OK

Track 3

Filename C:\A\Loess - Wind And Water [flac]\03 - Creshiem.wav

Peak level 77.7 %
Track quality 100.0 %
Test CRC 495A0011
Copy CRC 495A0011
Track not present in AccurateRip database
Copy OK

Track 4

Filename C:\A\Loess - Wind And Water [flac]\04 - Lomond.wav

Peak level 97.5 %
Track quality 100.0 %
Test CRC 14436977
Copy CRC 14436977
Track not present in AccurateRip database
Copy OK

Track 5

Filename C:\A\Loess - Wind And Water [flac]\05 - Copse.wav

Peak level 79.1 %
Track quality 100.0 %
Test CRC 29FA051D
Copy CRC 29FA051D
Track not present in AccurateRip database
Copy OK

Track 6

Filename C:\A\Loess - Wind And Water [flac]\06 - Sonde.wav

Peak level 100.0 %
Track quality 100.0 %
Test CRC 7DBB0376
Copy CRC 7DBB0376
Track not present in AccurateRip database
Copy OK

Track 7

Filename C:\A\Loess - Wind And Water [flac]\07 - Wiebke.wav

Peak level 96.4 %
Track quality 100.0 %
Test CRC 7133C8E4
Copy CRC 7133C8E4
Track not present in AccurateRip database
Copy OK

Track 8

Filename C:\A\Loess - Wind And Water [flac]\08 - Sororal.wav

Peak level 96.3 %
Track quality 100.0 %
Test CRC 601D5A30
Copy CRC 601D5A30
Track not present in AccurateRip database
Copy OK

Track 9

Filename C:\A\Loess - Wind And Water [flac]\09 - Talus.wav

Peak level 97.5 %
Track quality 99.9 %
Test CRC 2BA12E55
Copy CRC 2BA12E55
Track not present in AccurateRip database
Copy OK

Track 10

Filename C:\A\Loess - Wind And Water [flac]\10 - Veld.wav

Peak level 98.5 %
Track quality 100.0 %
Test CRC 301FDACF
Copy CRC 301FDACF
Track not present in AccurateRip database
Copy OK

Track 11

Filename C:\A\Loess - Wind And Water [flac]\11 - Dasein.wav

Peak level 97.7 %
Track quality 100.0 %
Test CRC 18EDB195
Copy CRC 18EDB195
Track not present in AccurateRip database
Copy OK

Track 12

Filename C:\A\Loess - Wind And Water [flac]\12 - III6.wav

Peak level 95.4 %
Track quality 100.0 %
Test CRC 97127F0B
Copy CRC 97127F0B
Track not present in AccurateRip database
Copy OK

None of the tracks are present in the AccurateRip database

No errors occurred

End of status report


REM GENRE IDM
REM DATE 2006
REM DISCID B40ED50C
REM COMMENT "ExactAudioCopy v0.99pb4"
PERFORMER "Loess"
TITLE "Wind and Water"
FILE "01 - Brumal.wav" WAVE
TRACK 01 AUDIO
TITLE "Brumal"
PERFORMER "Loess"
FLAGS DCP
INDEX 01 00:00:00
FILE "02 - Greensland.wav" WAVE
TRACK 02 AUDIO
TITLE "Greensland"
PERFORMER "Loess"
FLAGS DCP
INDEX 01 00:00:00
FILE "03 - Creshiem.wav" WAVE
TRACK 03 AUDIO
TITLE "Creshiem"
PERFORMER "Loess"
FLAGS DCP
INDEX 01 00:00:00
FILE "04 - Lomond.wav" WAVE
TRACK 04 AUDIO
TITLE "Lomond"
PERFORMER "Loess"
FLAGS DCP
INDEX 01 00:00:00
FILE "05 - Copse.wav" WAVE
TRACK 05 AUDIO
TITLE "Copse"
PERFORMER "Loess"
FLAGS DCP
INDEX 01 00:00:00
FILE "06 - Sonde.wav" WAVE
TRACK 06 AUDIO
TITLE "Sonde"
PERFORMER "Loess"
FLAGS DCP
INDEX 01 00:00:00
FILE "07 - Wiebke.wav" WAVE
TRACK 07 AUDIO
TITLE "Wiebke"
PERFORMER "Loess"
FLAGS DCP
INDEX 01 00:00:00
FILE "08 - Sororal.wav" WAVE
TRACK 08 AUDIO
TITLE "Sororal"
PERFORMER "Loess"
FLAGS DCP
INDEX 01 00:00:00
FILE "09 - Talus.wav" WAVE
TRACK 09 AUDIO
TITLE "Talus"
PERFORMER "Loess"
FLAGS DCP
INDEX 01 00:00:00
FILE "10 - Veld.wav" WAVE
TRACK 10 AUDIO
TITLE "Veld"
PERFORMER "Loess"
FLAGS DCP
INDEX 01 00:00:00
FILE "11 - Dasein.wav" WAVE
TRACK 11 AUDIO
TITLE "Dasein"
PERFORMER "Loess"
FLAGS DCP
INDEX 01 00:00:00
FILE "12 - III6.wav" WAVE
TRACK 12 AUDIO
TITLE "III6"
PERFORMER "Loess"
FLAGS DCP
INDEX 01 00:00:00

Год выпуска: 2009
Продолжительность: 01:18:29
Треклист:

01. Lull (06:24)
02. Schoen (06:05)
03. Gridlock - Troper (07:16)
04. Fascine (02:06)
05. Tranter (02:24)
06. Quench - Bud (06:33)
07. Selkuth (11:55)
08. Tobias Lilja - Spetaelska (06:34)
09. Helios - Nyckel (04:30)
10. Thresh (03:02)
11. Nomon (06:00)
12. Ontayso - Cyanor (07:06)
13. Hohn (08:34)

Exact Audio Copy V0.99 prebeta 5 from 4. May 2009

EAC extraction logfile from 3. November 2009, 20:45

Loess / Burrows

Used drive : HL-DT-STDVDRAM GMA-4082N Adapter: 0 ID: 0

Read mode : Secure
Utilize accurate stream : Yes
Defeat audio cache : Yes
Make use of C2 pointers : No

Read offset correction : 667
Overread into Lead-In and Lead-Out : No
Fill up missing offset samples with silence : Yes
Delete leading and trailing silent blocks : No
Null samples used in CRC calculations : Yes
Used interface : Installed external ASPI interface
Gap handling : Appended to previous track

Used output format : User Defined Encoder
Selected bitrate : 320 kBit/s
Quality : High
Add ID3 tag : No
Command line compressor : C:\Program Files\Exact Audio Copy\FLAC\FLAC.EXE
Additional command line options : -V -8 -T "artist=%a" -T "title=%t" -T "album=%g" -T "date=%y" -T "tracknumber=%n" -T "genre=%m" %s

TOC of the extracted CD

Track | Start | Length | Start sector | End sector
---------------------------------------------------------
1 | 0:00.00 | 6:24.05 | 0 | 28804
2 | 6:24.05 | 6:05.36 | 28805 | 56215
3 | 12:29.41 | 7:15.69 | 56216 | 88909
4 | 19:45.35 | 2:06.11 | 88910 | 98370
5 | 21:51.46 | 2:23.55 | 98371 | 109150
6 | 24:15.26 | 6:33.02 | 109151 | 138627
7 | 30:48.28 | 11:55.16 | 138628 | 192268
8 | 42:43.44 | 6:34.02 | 192269 | 221820
9 | 49:17.46 | 4:29.49 | 221821 | 242044
10 | 53:47.20 | 3:02.36 | 242045 | 255730
11 | 56:49.56 | 6:00.00 | 255731 | 282730
12 | 62:49.56 | 7:05.52 | 282731 | 314657
13 | 69:55.33 | 8:33.50 | 314658 | 353182

Track 1

Filename G:\1_My Music\VUZE Uploads\Loess - 2009 - Burrows\01 - Lull.wav

Pre-gap length 0:00:02.00

Peak level 97.7 %
Track quality 100.0 %
Test CRC B9BAE6C4
Copy CRC B9BAE6C4
Track not present in AccurateRip database
Copy OK

Track 2

Filename G:\1_My Music\VUZE Uploads\Loess - 2009 - Burrows\02 - Schoen.wav

Pre-gap length 0:00:02.00

Peak level 97.7 %
Track quality 100.0 %
Test CRC CC5EF3F1
Copy CRC CC5EF3F1
Track not present in AccurateRip database
Copy OK

Track 3

Filename G:\1_My Music\VUZE Uploads\Loess - 2009 - Burrows\03 - Troper (Remix of Chrometaphore by Gridlock).wav

Pre-gap length 0:00:02.00

Peak level 97.7 %
Track quality 100.0 %
Test CRC 4257EE80
Copy CRC 4257EE80
Track not present in AccurateRip database
Copy OK

Track 4

Filename G:\1_My Music\VUZE Uploads\Loess - 2009 - Burrows\04 - Fascine.wav

Peak level 97.7 %
Track quality 99.9 %
Test CRC 93C07572
Copy CRC 93C07572
Track not present in AccurateRip database
Copy OK

Track 5

Filename G:\1_My Music\VUZE Uploads\Loess - 2009 - Burrows\05 - Tranter.wav

Peak level 97.7 %
Track quality 100.0 %
Test CRC CB719E16
Copy CRC CB719E16
Track not present in AccurateRip database
Copy OK

Track 6

Filename G:\1_My Music\VUZE Uploads\Loess - 2009 - Burrows\06 - Bud (Remix of Bud by Quench).wav

Peak level 97.7 %
Track quality 100.0 %
Test CRC C239DE45
Copy CRC C239DE45
Track not present in AccurateRip database
Copy OK

Track 7

Filename G:\1_My Music\VUZE Uploads\Loess - 2009 - Burrows\07 - Selkuth.wav

Peak level 97.7 %
Track quality 100.0 %
Test CRC 5232FF52
Copy CRC 5232FF52
Track not present in AccurateRip database
Copy OK

Track 8

Filename G:\1_My Music\VUZE Uploads\Loess - 2009 - Burrows\08 - Spetalska.wav

Peak level 97.7 %
Track quality 100.0 %
Test CRC 759F47CD
Copy CRC 759F47CD
Track not present in AccurateRip database
Copy OK

Track 9

Filename G:\1_My Music\VUZE Uploads\Loess - 2009 - Burrows\09 - Nyckel.wav

Pre-gap length 0:00:02.00

Peak level 97.7 %
Track quality 99.9 %
Test CRC 24244C2C
Copy CRC 24244C2C
Track not present in AccurateRip database
Copy OK

Track 10

Filename G:\1_My Music\VUZE Uploads\Loess - 2009 - Burrows\10 - Thresh.wav

Pre-gap length 0:00:02.00

Peak level 97.7 %
Track quality 100.0 %
Test CRC 121EFDD4
Copy CRC 121EFDD4
Track not present in AccurateRip database
Copy OK

Track 11

Filename G:\1_My Music\VUZE Uploads\Loess - 2009 - Burrows\11 - Nomon.wav

Pre-gap length 0:00:02.00

Peak level 97.8 %
Track quality 100.0 %
Test CRC 9BAB28AD
Copy CRC 9BAB28AD
Track not present in AccurateRip database
Copy OK

Track 12

Filename G:\1_My Music\VUZE Uploads\Loess - 2009 - Burrows\12 - Cyanor (Remix of Cianuro by Ontayso).wav

Peak level 97.7 %
Track quality 99.9 %
Test CRC 54D4E00A
Copy CRC 54D4E00A
Track not present in AccurateRip database
Copy OK

Track 13

Filename G:\1_My Music\VUZE Uploads\Loess - 2009 - Burrows\13 - Hohn.wav

Peak level 97.7 %
Track quality 100.0 %
Test CRC A22D6EAB
Copy CRC A22D6EAB
Track not present in AccurateRip database
Copy OK

None of the tracks are present in the AccurateRip database

No errors occurred

End of status report


REM GENRE Electronic
REM DATE 2009
REM DISCID C312650D
REM COMMENT "ExactAudioCopy v0.99pb5"
FILE "01 - Lull.wav" WAVE
TRACK 01 AUDIO
INDEX 01 00:00:00
TRACK 02 AUDIO
INDEX 00 06:22:05
FILE "02 - Schoen.wav" WAVE
INDEX 01 00:00:00
TRACK 03 AUDIO
INDEX 00 06:03:36
FILE "03 - Troper (Remix of Chrometaphore by Gridlock).wav" WAVE
INDEX 01 00:00:00
FILE "04 - Fascine.wav" WAVE
TRACK 04 AUDIO
INDEX 01 00:00:00
FILE "05 - Tranter.wav" WAVE
TRACK 05 AUDIO
INDEX 01 00:00:00
FILE "06 - Bud (Remix of Bud by Quench).wav" WAVE
TRACK 06 AUDIO
INDEX 01 00:00:00
FILE "07 - Selkuth.wav" WAVE
TRACK 07 AUDIO
INDEX 01 00:00:00
FILE "08 - Spetalska.wav" WAVE
TRACK 08 AUDIO
INDEX 01 00:00:00
TRACK 09 AUDIO
INDEX 00 06:32:02
FILE "09 - Nyckel.wav" WAVE
INDEX 01 00:00:00
TRACK 10 AUDIO
INDEX 00 04:27:49
FILE "10 - Thresh.wav" WAVE
INDEX 01 00:00:00
TRACK 11 AUDIO
INDEX 00 03:00:36
FILE "11 - Nomon.wav" WAVE
INDEX 01 00:00:00
FILE "12 - Cyanor (Remix of Cianuro by Ontayso).wav" WAVE
TRACK 12 AUDIO
INDEX 01 00:00:00
FILE "13 - Hohn.wav" WAVE
TRACK 13 AUDIO
INDEX 01 00:00:00

Время раздачи: 12/7
[NNMClub.to]_Loess FLAC.torrent
 Торрент:   Зарегистрирован
 
Примагнититься
Free Leech
Зарегистрируйтесь и скачайте торрент!
29,1 KB
 Зарегистрирован:   10 Янв 2017 02:03:51
 Размер:   1,88 GB  (
 Рейтинг:    (Голосов: 7)
 Поблагодарили:   22
 Проверка:   Оформление проверено модератором 10 Янв 2017 02:05:11
Как cкачать  ·  Как раздать  ·  Правильно оформить  ·  Поднять ратио!  
Показать сообщения:   
Начать новую тему   Ответить на тему    Торрент-трекер NNM-Club -> Electronic -> IDM (Lossless) Часовой пояс: GMT + 3
Страница 1 из 1