Интеллигентный торрент-трекер
canvas not supported
Нас вместе: 4 348 773

Инферно / Inferno (2016) BDRemux [H.264/1080p] [EN / EN, Fr, Sp Sub]


 
 
RSS
Начать новую тему   Ответить на тему    Торрент-трекер NNM-Club -> Зарубежное кино -> Фильмы в оригинале (HD)
Автор Сообщение
smaster67 ®
Модератор Видео
Покровитель талантов Uploader 300+
Стаж: 7 лет 10 мес.
Сообщений: 6630
Ratio: 198,952
Поблагодарили: 192460
100%
Инферно / Inferno (2016) BDRemux [H.264/1080p] [EN / EN, Fr, Sp Sub]

Производство: Венгрия, США
Жанр: боевик, триллер, драма, криминал, детектив, приключения

Режиссер: Рон Ховард
Актеры: Том Хэнкс, Фелисити Джонс, Омар Си, Ирфан Кхан, Сидсе Бабетт Кнудсен, Бен Фостер, Ана Улару, Ида Дарвиш, Фаусто Мария Шиараппа, Робин Мунаини

Описание:
Профессор Роберт Лэнгдон приходит в сознание в одной из итальянских больниц, полностью потеряв память. Местный врач Сиенна Брукс пытается помочь Роберту не только восстановить воспоминания, но и остановить загадочных злоумышленников, которые намерены распространить смертоносный вирус. Разгадка таинственной истории связана с «Адом» (ит. Inferno) - первой частью «Божественной комедии» Данте.



Продолжительность: 02:01:35
Качество видео: BDRemux
Перевод: Отсутствует
Язык озвучки: Английский
Язык субтитров: английский, испанский, французский
Вид субтитров: Вшитые

Видео: AVC, 1920x1080 (16:9), 24101 kbps, 23,976 fps, 0,485 bpp
Аудио: DTS-HD / 5.1 / 48 kHz / 2269 kbps / 16 bit (Core: 5.1 / 48 kHz / 1509 kbps / 16 bit)
Код: выделить все
General
Unique ID                                Inferno.2016.REMUX.BluRay.1080p.AVC.DTS-HD.MA5.1-iFT.mkv
Format                                   : Matroska
Format version                           : Version 4 / Version 2
File size                                : 22.4 GiB
Duration                                 : 2 h 1 min
Overall bit rate mode                    : Variable
Overall bit rate                         : 26.4 Mb/s
Movie name                               : iFT
Encoded date                             : UTC 2017-01-09 13:21:30
Writing application                      : mkvmerge v9.6.0 ('Slave To Your Mind') 64bit
Writing library                          : libebml v1.3.4 + libmatroska v1.4.5

Video
ID                                       : 1
Format                                   : AVC
Format/Info                              : Advanced Video Codec
Format profile                           : High@L4.1
Format settings, CABAC                   : Yes
Format settings, ReFrames                : 2 frames
Format settings, GOP                     : M=1, N=10
Codec ID                                 : V_MPEG4/ISO/AVC
Duration                                 : 2 h 1 min
Bit rate mode                            : Variable
Bit rate                                 : 24.1 Mb/s
Width                                    : 1 920 pixels
Height                                   : 1 080 pixels
Display aspect ratio                     : 16:9
Frame rate mode                          : Constant
Frame rate                               : 23.976 (24000/1001) FPS
Color space                              : YUV
Chroma subsampling                       : 4:2:0
Bit depth                                : 8 bits
Scan type                                : Progressive
Bits/(Pixel*Frame)                       : 0.485
Stream size                              : 20.5 GiB (91%)
Default                                  : Yes
Forced                                   : No

Audio
ID                                       : 2
Format                                   : DTS
Format/Info                              : Digital Theater Systems
Format profile                           : MA / Core
Mode                                     : 16
Format settings, Endianness              : Big
Codec ID                                 : A_DTS
Duration                                 : 2 h 1 min
Bit rate mode                            : Variable / Constant
Bit rate                                 : 2 269 kb/s / 1 509 kb/s
Channel(s)                               : 6 channels
Channel positions                        : Front: L C R, Side: L R, LFE
Sampling rate                            : 48.0 kHz
Frame rate                               : 93.750 FPS (512 spf)
Bit depth                                : 16 bits
Compression mode                         : Lossless / Lossy
Stream size                              : 1.93 GiB (9%)
Default                                  : Yes
Forced                                   : No

Text #1
ID                                       : 3
Format                                   : PGS
Muxing mode                              : zlib
Codec ID                                 : S_HDMV/PGS
Codec ID/Info                            : Picture based subtitle format used on BDs/HD-DVDs
Duration                                 : 1 h 57 min
Bit rate                                 : 18.6 kb/s
Count of elements                        : 3332
Stream size                              : 15.6 MiB (0%)
Language                                 : English
Default                                  : Yes
Forced                                   : No

Text #2
ID                                       : 4
Format                                   : PGS
Muxing mode                              : zlib
Codec ID                                 : S_HDMV/PGS
Codec ID/Info                            : Picture based subtitle format used on BDs/HD-DVDs
Duration                                 : 1 h 55 min
Bit rate                                 : 16.4 kb/s
Count of elements                        : 2720
Stream size                              : 13.5 MiB (0%)
Language                                 : Spanish
Default                                  : No
Forced                                   : No

Text #3
ID                                       : 5
Format                                   : PGS
Muxing mode                              : zlib
Codec ID                                 : S_HDMV/PGS
Codec ID/Info                            : Picture based subtitle format used on BDs/HD-DVDs
Duration                                 : 2 h 0 min
Bit rate                                 : 15.2 kb/s
Count of elements                        : 2804
Stream size                              : 13.1 MiB (0%)
Language                                 : French
Default                                  : No
Forced                                   : No

Menu
00:00:00.000                             : en:Chapter 01
00:04:13.544                             : en:Chapter 02
00:12:32.918                             : en:Chapter 03
00:23:43.004                             : en:Chapter 04
00:36:03.161                             : en:Chapter 05
00:51:11.651                             : en:Chapter 06
00:59:16.594                             : en:Chapter 07
01:01:42.907                             : en:Chapter 08
01:07:42.516                             : en:Chapter 09
01:13:25.234                             : en:Chapter 10
01:20:02.255                             : en:Chapter 11
01:24:37.363                             : en:Chapter 12
01:31:25.271                             : en:Chapter 13
01:35:42.111                             : en:Chapter 14
01:40:51.128                             : en:Chapter 15
01:52:27.907                             : en:Chapter 16

Скриншоты:



Все одноименные релизы в Клубе

Время раздачи: с 13:00 до 23:00
[NNMClub.to]_Inferno.2016.REMUX.BluRay.1080p.AVC.DTS-HD.MA5.1-iFT.mkv.torrent
 Торрент: Платиновая раздача  Зарегистрирован
 
Примагнититься

Скачать
 Зарегистрирован:   10 Янв 2017 08:23:03
 Размер:   22,4 GB  (
 Рейтинг:   4,9 (Голосов: 11)
 Поблагодарили:   45
 Проверка:   Оформление проверено модератором 10 Янв 2017 08:23:30
Как cкачать  ·  Как раздать  ·  Правильно оформить  ·  Поднять ратио!  
Загрузка...
Показать сообщения:   
Начать новую тему   Ответить на тему    Торрент-трекер NNM-Club -> Зарубежное кино -> Фильмы в оригинале (HD) Часовой пояс: GMT + 3
Страница 1 из 1