Интеллигентный торрент-трекер
canvas not supported
Нас вместе: 4 255 522

Свет в океане / The Light Between Oceans (2016) BDRemux [H.264/1080p] [EN / EN, Fr, Sp Sub]


 
 
RSS
Начать новую тему   Ответить на тему    Торрент-трекер NNM-Club -> Зарубежное кино -> Фильмы в оригинале (HD)
Автор Сообщение
smaster67 ®
Модератор Видео
Покровитель талантов Uploader 300+
Стаж: 7 лет 7 мес.
Сообщений: 6499
Ratio: 188,717
Поблагодарили: 185236
100%
Свет в океане / The Light Between Oceans (2016) BDRemux [H.264/1080p] [EN / EN, Fr, Sp Sub]

Производство: Великобритания, Новая Зеландия, США
Жанр: драма, мелодрама

Режиссер: Дерек Сиенфрэнс
Актеры: Майкл Фассбендер, Алисия Викандер, Рэйчел Вайс, Флоренс Клери, Джек Томпсон, Томас Унгер, Джейн Менелос, Гарри МакДональд, Энтони Хэйес, Бенедикт Харди, Эмили Барклай, Брайан Браун

Описание:
Вернувшийся с войны смотритель маяка Том встречает трепетную девушку по имени Изабель. Зародившаяся между ними любовь полностью преображает Изабель и возвращает опустошенному Тому веру в жизнь. Молодожены поселяются на уединенном острове, к берегу которого однажды пристает лодка с новорожденной девочкой. Супруги решают воспитать младенца как родную дочь, не представляя, насколько разрушительными будут последствия этого выбора.



Продолжительность: 02:12:51
Качество видео: BDRemux
Перевод: Отсутствует
Язык озвучки: Английский
Язык субтитров: английский, французский, испанский
Вид субтитров: Вшитые

Видео: AVC, 1920x1080 (16:9), 32670 kbps, 23,976 fps, 0,657 bpp
Аудио: DTS-HD / 7.1 / 48 kHz / 4813 kbps / 24 bit
Код: выделить все
General
Unique ID                                The.Light.Between.Oceans.2016.REMUX.BluRay.1080p.AVC.DTS-HD.MA7.1-iFT.mkv
Format                                   : Matroska
Format version                           : Version 4 / Version 2
File size                                : 34.9 GiB
Duration                                 : 2 h 12 min
Overall bit rate mode                    : Variable
Overall bit rate                         : 37.6 Mb/s
Encoded date                             : UTC 2017-01-09 15:56:17
Writing application                      : mkvmerge v9.5.0 ('Quiet Fire') 64bit
Writing library                          : libebml v1.3.4 + libmatroska v1.4.5

Video
ID                                       : 1
Format                                   : AVC
Format/Info                              : Advanced Video Codec
Format profile                           : High@L4.1
Format settings, CABAC                   : Yes
Format settings, ReFrames                : 4 frames
Codec ID                                 : V_MPEG4/ISO/AVC
Duration                                 : 2 h 12 min
Bit rate mode                            : Variable
Bit rate                                 : 32.7 Mb/s
Maximum bit rate                         : 36.5 Mb/s
Width                                    : 1 920 pixels
Height                                   : 1 080 pixels
Display aspect ratio                     : 16:9
Frame rate mode                          : Constant
Frame rate                               : 23.976 (24000/1001) FPS
Color space                              : YUV
Chroma subsampling                       : 4:2:0
Bit depth                                : 8 bits
Scan type                                : Progressive
Bits/(Pixel*Frame)                       : 0.657
Stream size                              : 30.3 GiB (87%)
Default                                  : No
Forced                                   : No

Audio
ID                                       : 2
Format                                   : DTS
Format/Info                              : Digital Theater Systems
Format profile                           : MA / Core
Mode                                     : 16
Format settings, Endianness              : Big
Codec ID                                 : A_DTS
Duration                                 : 2 h 12 min
Bit rate mode                            : Variable / Constant
Bit rate                                 : 4 813 kb/s / 1 509 kb/s
Channel(s)                               : 8 channels / 6 channels
Channel positions                        : Front: L C R, Side: L R, Back: L R, LFE / Front: L C R, Side: L R, LFE
Sampling rate                            : 48.0 kHz
Frame rate                               : 93.750 FPS (512 spf)
Bit depth                                : 24 bits
Compression mode                         : Lossless / Lossy
Stream size                              : 4.47 GiB (13%)
Default                                  : Yes
Forced                                   : No

Text #1
ID                                       : 3
Format                                   : PGS
Muxing mode                              : zlib
Codec ID                                 : S_HDMV/PGS
Codec ID/Info                            : Picture based subtitle format used on BDs/HD-DVDs
Duration                                 : 2 h 6 min
Bit rate                                 : 10.1 kb/s
Count of elements                        : 3272
Stream size                              : 9.18 MiB (0%)
Language                                 : English
Default                                  : Yes
Forced                                   : No

Text #2
ID                                       : 4
Format                                   : PGS
Muxing mode                              : zlib
Codec ID                                 : S_HDMV/PGS
Codec ID/Info                            : Picture based subtitle format used on BDs/HD-DVDs
Duration                                 : 2 h 5 min
Bit rate                                 : 8 012 b/s
Count of elements                        : 2606
Stream size                              : 7.17 MiB (0%)
Language                                 : French
Default                                  : No
Forced                                   : No

Text #3
ID                                       : 5
Format                                   : PGS
Muxing mode                              : zlib
Codec ID                                 : S_HDMV/PGS
Codec ID/Info                            : Picture based subtitle format used on BDs/HD-DVDs
Duration                                 : 2 h 5 min
Bit rate                                 : 7 464 b/s
Count of elements                        : 2330
Stream size                              : 6.68 MiB (0%)
Language                                 : Spanish
Default                                  : No
Forced                                   : No

Text #4
ID                                       : 6
Format                                   : PGS
Muxing mode                              : zlib
Codec ID                                 : S_HDMV/PGS
Codec ID/Info                            : Picture based subtitle format used on BDs/HD-DVDs
Duration                                 : 2 h 12 min
Bit rate                                 : 24.5 kb/s
Count of elements                        : 5142
Stream size                              : 23.2 MiB (0%)
Language                                 : English
Default                                  : No
Forced                                   : No

Text #5
ID                                       : 7
Format                                   : PGS
Muxing mode                              : zlib
Codec ID                                 : S_HDMV/PGS
Codec ID/Info                            : Picture based subtitle format used on BDs/HD-DVDs
Duration                                 : 2 h 12 min
Bit rate                                 : 19.7 kb/s
Count of elements                        : 4824
Stream size                              : 18.6 MiB (0%)
Language                                 : French
Default                                  : No
Forced                                   : No

Text #6
ID                                       : 8
Format                                   : PGS
Muxing mode                              : zlib
Codec ID                                 : S_HDMV/PGS
Codec ID/Info                            : Picture based subtitle format used on BDs/HD-DVDs
Duration                                 : 2 h 12 min
Bit rate                                 : 19.3 kb/s
Count of elements                        : 4832
Stream size                              : 18.3 MiB (0%)
Language                                 : Spanish
Default                                  : No
Forced                                   : No

Text #7
ID                                       : 9
Format                                   : PGS
Muxing mode                              : zlib
Codec ID                                 : S_HDMV/PGS
Codec ID/Info                            : Picture based subtitle format used on BDs/HD-DVDs
Duration                                 : 2 h 0 min
Bit rate                                 : 147 b/s
Count of elements                        : 48
Stream size                              : 130 KiB (0%)
Language                                 : French
Default                                  : No
Forced                                   : No

Text #8
ID                                       : 10
Format                                   : PGS
Muxing mode                              : zlib
Codec ID                                 : S_HDMV/PGS
Codec ID/Info                            : Picture based subtitle format used on BDs/HD-DVDs
Duration                                 : 1 h 34 min
Bit rate                                 : 310 b/s
Count of elements                        : 72
Stream size                              : 214 KiB (0%)
Language                                 : Spanish
Default                                  : No
Forced                                   : No

Menu
00:00:00.000                             : en:00:00:00.000
00:04:55.128                             : en:00:04:55.128
00:11:38.531                             : en:00:11:38.531
00:17:30.007                             : en:00:17:30.007
00:23:07.469                             : en:00:23:07.469
00:29:35.816                             : en:00:29:35.816
00:35:21.953                             : en:00:35:21.953
00:42:35.678                             : en:00:42:35.678
00:49:51.822                             : en:00:49:51.822
00:55:14.186                             : en:00:55:14.186
00:59:26.062                             : en:00:59:26.062
01:05:48.027                             : en:01:05:48.027
01:10:52.957                             : en:01:10:52.957
01:13:14.724                             : en:01:13:14.724
01:22:34.032                             : en:01:22:34.032
01:31:42.956                             : en:01:31:42.956
01:42:29.101                             : en:01:42:29.101
01:51:31.018                             : en:01:51:31.018
02:01:29.324                             : en:02:01:29.324
02:07:08.621                             : en:02:07:08.621

Скриншоты:



Все одноименные релизы в Клубе

Время раздачи: с 13:00 до 23:00
[NNMClub.to]_The.Light.Between.Oceans.2016.REMUX.BluRay.1080p.AVC.DTS-HD.MA7.1-iFT.mkv.torrent
 Торрент: Золотая раздача  Зарегистрирован
 
Примагнититься

Зарегистрируйтесь и скачайте торрент!
175 KB
 Зарегистрирован:   10 Янв 2017 09:35:53
 Размер:   34,9 GB  (
 Рейтинг:    (Голосов: 7)
 Поблагодарили:   34
 Проверка:   Оформление проверено модератором 10 Янв 2017 09:36:26
Как cкачать  ·  Как раздать  ·  Правильно оформить  ·  Поднять ратио!  
Показать сообщения:   
Начать новую тему   Ответить на тему    Торрент-трекер NNM-Club -> Зарубежное кино -> Фильмы в оригинале (HD) Часовой пояс: GMT + 3
Страница 1 из 1