Интеллигентный торрент-трекер
canvas not supported
Нас вместе: 4 302 587

Auditory Canvas - Collection 8 Releases (2009-2014) [FLAC|Lossless|WEB-16/24Bit|tracks] <IDM, Downtempo, Glitch, Ambient>


 
 
RSS
Начать новую тему   Ответить на тему    Торрент-трекер NNM-Club -> Electronic -> IDM (Lossless)
Автор Сообщение
vilator ®
Модератор Музыки
RG Music
 
Стаж: 7 лет 11 мес.
Сообщений: 5692
Ratio: 124,701
Поблагодарили: 111739
100%
Откуда: Minsk
pirates.png

Founder of Summer Rain Recordings, David Holmes grew up in the early seventies, surrounded by music (at least until he took his mother’s record player apart at the age of 6 to see how it worked). His favourite toys were those that made or recorded sound. One of his most loved being the Stylaphone, which he was given at the age of 4. David began Djing at the age of 18, playing local events and clubs whenever the opportunity arose, often for free, solely for the enjoyment and satisfaction it gave him. Whilst at University in Manchester, UK, David co formed and ran a successful club night for 3 years, playing to a loyal, continuously growing crowd every fortnight. Success in this arena lead to David securing many bookings at local clubs and events around the North West of England.
Жанр: IDM, Downtempo, Glitch, Ambient • Страна: UK • Год: 2009-2014 • Тип издания: WEB (16/24Bit) • Лейбл: Summer Rain, Orchard
Аудиокодек: FLAC (*.flac) • Тип рипа: tracks • Продолжительность: 03:59:01 • Источник: bandcamp, auditorycanvas
Треклист:
Год выпуска: 2009
Продолжительность: 00:06:37
Треклист:

01. Snow Fall (06:37)

-----------------------

DON'T MODIFY THIS FILE

-----------------------

PERFORMER: auCDtect Task Manager, ver. 1.6.0 RC1 build 1.6.0.1
Copyright (c) 2008-2010 y-soft. All rights reserved
http://y-soft.org

ANALYZER: auCDtect: CD records authenticity detector, version 0.8.2
Copyright (c) 2004 Oleg Berngardt. All rights reserved.
Copyright (c) 2004 Alexander Djourik. All rights reserved.

FILE: 01. Snow Fall.flac
Size: 49638119 Hash: 4461C0499D0DEC94FDF47EFF73A5BA0F Accuracy: -m0
Conclusion: CDDA 100%
Signature: FA01655CD8C93443273D6C3ADE914427986514C4

Год выпуска: 2010
Продолжительность: 01:03:11
Треклист:

01. Lost And Found (06:35)
02. Spring Rain (05:54)
03. Jade (05:19)
04. Fabrique (06:28)
05. Mystery Trip (06:43)
06. Desert Sun (06:28)
07. Dusk Chant (05:38)
08. Lest We Make It A Mistake (05:45)
09. Chrysalis (06:01)
10. Get Green Soothe (08:20)

-----------------------

DON'T MODIFY THIS FILE

-----------------------

PERFORMER: auCDtect Task Manager, ver. 1.6.0 RC1 build 1.6.0.1
Copyright (c) 2008-2010 y-soft. All rights reserved
http://y-soft.org

ANALYZER: auCDtect: CD records authenticity detector, version 0.8.2
Copyright (c) 2004 Oleg Berngardt. All rights reserved.
Copyright (c) 2004 Alexander Djourik. All rights reserved.

FILE: 10. Get Green Soothe.flac
Size: 53775379 Hash: 94868A0F5B55C4ED5319F5022830AE57 Accuracy: -m0
Conclusion: MPEG 95%
Signature: 489350A45D3E9A61304881E562A959746B959DB9
FILE: 09. Chrysalis.flac
Size: 40502386 Hash: 4B44F72CF763D8887358243CFF7D3719 Accuracy: -m0
Conclusion: MPEG 95%
Signature: 2765D0D8781DA3FEE9E69C287270961F3C379B0D
FILE: 08. Lest We Make It A Mistake.flac
Size: 35190707 Hash: 4F9BB48D743F4C26CE0C5A5EA7173107 Accuracy: -m0
Conclusion: MPEG 95%
Signature: 105ED08A20131C699A097408CD7F7A62FB429B78
FILE: 07. Dusk Chant.flac
Size: 35745174 Hash: 0DAC206934A90922510E2EBED46C31BF Accuracy: -m0
Conclusion: CDDA 100%
Signature: 120EB7CED9302823A1C809456A5541FE9754D295
FILE: 06. Desert Sun.flac
Size: 38781504 Hash: 15AA5916234F52842517A5EEB19A9170 Accuracy: -m0
Conclusion: CDDA 100%
Signature: 590C818F4D3016C25EF9AB6553ACE669E112DAFF
FILE: 05. Mystery Trip.flac
Size: 46153986 Hash: 0D1ADF54B3316271AD67665463FFA486 Accuracy: -m0
Conclusion: CDDA 100%
Signature: 7BB73E4FC1179D5A48FB46F6AEE3A07CE32A2ED8
FILE: 04. Fabrique.flac
Size: 40822689 Hash: 6E58E8C87C520E8F14A76BF7412C4D6C Accuracy: -m0
Conclusion: MPEG 95%
Signature: C101811D6AE6333A08B0B1BEC80EA498B4256F6E
FILE: 03. Jade.flac
Size: 35135697 Hash: 61D9BE7646B8DCAEF9C19A2FEDB6DDD9 Accuracy: -m0
Conclusion: CDDA 99%
Signature: DA5FBC4A6534A36E0A8428462B5273FA473C6303
FILE: 02. Spring Rain.flac
Size: 32137152 Hash: 7A20A944DCEF3B7EA6D8B888A2F02BEA Accuracy: -m0
Conclusion: CDDA 100%
Signature: 88502AD3EB3CF93AB4EDDB5C10C2CA412E503C10
FILE: 01. Lost And Found.flac
Size: 35802560 Hash: 26A3E88F96D5572D6CE76CAB39D31A1E Accuracy: -m0
Conclusion: MPEG 95%
Signature: 5C64E3F8816F2C6801848907E58353FC6A8E1CED

Год выпуска: 2011
Продолжительность: 00:28:16
Треклист:

01. Introspect (06:56)
02. A Dream Nuclei (feat. Kyrstyn Pixton) (05:49)
03. Eradine (05:20)
04. Pathways (05:12)
05. Candy (04:59)

foobar2000 1.1 / Dynamic Range Meter 1.1.1
log date: 2017-01-11 01:24:31

--------------------------------------------------------------------------------
Analyzed: Auditory Canvas / Fabric of Life
--------------------------------------------------------------------------------

DR Peak RMS Duration Track
--------------------------------------------------------------------------------
DR6 0.00 dB -8.14 dB 6:56 ?-Introspect
DR3 0.00 dB -6.35 dB 5:49 ?-A Dream Nuclei (feat. Kyrstyn Pixton)
DR5 0.00 dB -7.75 dB 5:20 ?-Eradine
DR7 0.00 dB -9.84 dB 5:12 ?-Pathways
DR8 0.00 dB -9.61 dB 4:59 ?-Candy
--------------------------------------------------------------------------------

Number of tracks: 5
Official DR value: DR6

Samplerate: 44100 Hz
Channels: 2
Bits per sample: 24
Bitrate: 1522 kbps
Codec: FLAC
================================================================================

Год выпуска: 2011
Продолжительность: 00:29:09
Треклист:

01. Burn (04:24)
02. Ember (03:50)
03. Become (04:44)
04. Rise (Part I & II) (10:43)
05. Glow (Iridescence) (05:28)

-----------------------

DON'T MODIFY THIS FILE

-----------------------

PERFORMER: auCDtect Task Manager, ver. 1.6.0 RC1 build 1.6.0.1
Copyright (c) 2008-2010 y-soft. All rights reserved
http://y-soft.org

ANALYZER: auCDtect: CD records authenticity detector, version 0.8.2
Copyright (c) 2004 Oleg Berngardt. All rights reserved.
Copyright (c) 2004 Alexander Djourik. All rights reserved.

FILE: 05. Glow (Iridescence).flac
Size: 34400909 Hash: F9426E6266BA2BF4D6EE5F59416A03F0 Accuracy: -m0
Conclusion: CDDA 100%
Signature: B85A01DD82F5A637CC83F7080BD29F220333A24C
FILE: 04. Rise (Part I & II).flac
Size: 73608324 Hash: 5C55637BE5A88A7D5723A501B7638CC0 Accuracy: -m0
Conclusion: CDDA 100%
Signature: 9086BD65E39BCC41CB00877A68C4955A31815F28
FILE: 03. Become.flac
Size: 27935064 Hash: 01BEAA16ACA4D61E278B4CF7895E8BEB Accuracy: -m0
Conclusion: CDDA 100%
Signature: D32C8628EB7F83372965ACA75AFA3BE6F6F12D64
FILE: 02. Ember.flac
Size: 25200714 Hash: 46A174FB161C4D03440E68D1C206A835 Accuracy: -m0
Conclusion: CDDA 100%
Signature: 96DF87B66AF7CD4D09138FB9697D7D10D67081C8
FILE: 01. Burn.flac
Size: 25184164 Hash: 00AD3FA3D7694E929AB0C43BC3E58768 Accuracy: -m0
Conclusion: CDDA 99%
Signature: DD76A42D0DCAB9A7F37DD8E350E64579EC0B51B9

Год выпуска: 2014
Продолжительность: 00:29:53
Треклист:

01. Thread That Binds (feat. Shawni) (04:41)
02. Asylum (06:36)
03. Kiss The Sky (06:40)
04. Semblance (05:18)
05. Feel (feat. Kyrstyn Pixxton) (06:38)

foobar2000 1.1 / Dynamic Range Meter 1.1.1
log date: 2017-01-11 01:25:21

--------------------------------------------------------------------------------
Analyzed: Auditory Canvas / Air (Vāyu)
--------------------------------------------------------------------------------

DR Peak RMS Duration Track
--------------------------------------------------------------------------------
DR10 0.00 dB -12.09 dB 4:41 ?-Thread That Binds (feat. Shawni)
DR8 0.00 dB -9.50 dB 6:36 ?-Asylum
DR4 0.00 dB -5.73 dB 6:40 ?-Kiss The Sky
DR5 0.00 dB -7.19 dB 5:18 ?-Semblance
DR8 -1.15 dB -13.04 dB 6:38 ?-Feel (feat. Kyrstyn Pixxton)
--------------------------------------------------------------------------------

Number of tracks: 5
Official DR value: DR7

Samplerate: 44100 Hz
Channels: 2
Bits per sample: 24
Bitrate: 1542 kbps
Codec: FLAC
================================================================================

Год выпуска: 2014
Продолжительность: 00:31:53
Треклист:

01. Out Of Exile (feat. Kyrstyn Pixton) (05:36)
02. Elven (05:06)
03. Winters Sanctuary (feat. Kyrstyn Pixton) (04:34)
04. Solace Of Rememberance (feat. Shawni) (06:30)
05. Labyrinthine (04:34)
06. Dust Awakening (05:33)

foobar2000 1.1 / Dynamic Range Meter 1.1.1
log date: 2017-01-11 01:25:47

--------------------------------------------------------------------------------
Analyzed: Auditory Canvas / Earth (Pruṭhavī)
--------------------------------------------------------------------------------

DR Peak RMS Duration Track
--------------------------------------------------------------------------------
DR7 0.00 dB -9.80 dB 5:36 ?-Out Of Exile (feat. Kyrstyn Pixton)
DR5 0.00 dB -6.04 dB 5:06 ?-Elven
DR5 -8.50 dB -16.03 dB 4:34 ?-Winters Sanctuary (feat. Kyrstyn Pixton)
DR5 0.00 dB -6.67 dB 6:30 ?-Solace Of Rememberance (feat. Shawni)
DR4 0.00 dB -6.94 dB 4:34 ?-Labyrinthine
DR8 -0.10 dB -10.04 dB 5:33 ?-Dust Awakening
--------------------------------------------------------------------------------

Number of tracks: 6
Official DR value: DR6

Samplerate: 44100 Hz
Channels: 2
Bits per sample: 24
Bitrate: 784 kbps
Codec: FLAC
================================================================================

Год выпуска: 2014
Продолжительность: 00:25:26
Треклист:

01. The Quickening (04:19)
02. Banu (07:00)
03. Library Of Dreams (04:10)
04. Ceremony (04:24)
05. All We Have Is Now (05:33)

foobar2000 1.1 / Dynamic Range Meter 1.1.1
log date: 2017-01-11 01:26:10

--------------------------------------------------------------------------------
Analyzed: Auditory Canvas / Fire (Teja)
--------------------------------------------------------------------------------

DR Peak RMS Duration Track
--------------------------------------------------------------------------------
DR6 0.00 dB -7.10 dB 4:19 ?-The Quickening
DR6 0.00 dB -7.68 dB 7:00 ?-Banu
DR8 -1.80 dB -12.10 dB 4:10 ?-Library Of Dreams
DR6 0.00 dB -8.18 dB 4:24 ?-Ceremony
DR7 0.00 dB -9.30 dB 5:33 ?-All We Have Is Now
--------------------------------------------------------------------------------

Number of tracks: 5
Official DR value: DR7

Samplerate: 44100 Hz
Channels: 2
Bits per sample: 24
Bitrate: 1508 kbps
Codec: FLAC
================================================================================

Год выпуска: 2014
Продолжительность: 00:24:35
Треклист:

01. Forgive (04:20)
02. Entwine (06:25)
03. Tides (04:11)
04. Resolution (04:15)
05. Awaken (05:24)

foobar2000 1.1 / Dynamic Range Meter 1.1.1
log date: 2017-01-11 01:26:32

--------------------------------------------------------------------------------
Analyzed: Auditory Canvas / Water (Āpa)
--------------------------------------------------------------------------------

DR Peak RMS Duration Track
--------------------------------------------------------------------------------
DR6 0.00 dB -8.00 dB 4:20 ?-Forgive
DR7 0.00 dB -8.83 dB 6:25 ?-Entwine
DR8 0.00 dB -9.91 dB 4:11 ?-Tides
DR5 0.00 dB -6.76 dB 4:15 ?-Resolution
DR12 -0.74 dB -15.69 dB 5:24 ?-Awaken
--------------------------------------------------------------------------------

Number of tracks: 5
Official DR value: DR8

Samplerate: 44100 Hz
Channels: 2
Bits per sample: 24
Bitrate: 1440 kbps
Codec: FLAC
================================================================================

Время раздачи: 12/7
[NNMClub.to]_Auditory Canvas FLAC.torrent
 Торрент:   Зарегистрирован
 
Примагнититься
Free Leech
Зарегистрируйтесь и скачайте торрент!
24,1 KB
 Зарегистрирован:   11 Янв 2017 03:03:20
 Размер:   1,94 GB  (
 Рейтинг:    (Голосов: 4)
 Поблагодарили:   21
 Проверка:   Оформление проверено модератором 11 Янв 2017 03:03:55
Как cкачать  ·  Как раздать  ·  Правильно оформить  ·  Поднять ратио!  
Показать сообщения:   
Начать новую тему   Ответить на тему    Торрент-трекер NNM-Club -> Electronic -> IDM (Lossless) Часовой пояс: GMT + 3
Страница 1 из 1