Интеллигентный торрент-трекер
canvas not supported
Нас вместе: 4 255 522

White Widdow - Silhouette (2016) [FLAC|Lossless|tracks + .cue] <Melodic Rock>


 
 
RSS
Начать новую тему   Ответить на тему    Торрент-трекер NNM-Club -> Rock, Alternative, Punk, Metal -> Rock (Lossless)
Автор Сообщение
Svetojar ®
RG Музыки
 
Стаж: 2 мес. 9 дней
Сообщений: 380
Ratio: 149,39
Поблагодарили: 15049
100%
Откуда: Тюмень
White Widdow - Silhouette (2016)
Год: 2016
Жанр: Melodic Rock
Издание: AOR Heaven - AORH00142
Продолжительность: 00:37:28

Кодек: FLAC
Битрейт: Lossless
Тип рипа: tracks + .cue

Треклист:
01. Stranded (3:25)
02. Surrender My Heart (5:08)
03. Living For The Night (3:19)
04. Last Chance For Love (3:44)
05. Wild At Heart (3:29)
06. Damage Is Done (3:52)
07. Game Of Love (3:27)
08. Smile For The Camera (3:26)
09. Waited (4:20)
10. Sleeping With The Enemy (3:19)
foobar2000 1.3.14 / Замер динамического диапазона (DR) 1.1.1
Дата отчёта: 2017-01-11 20:58:28

--------------------------------------------------------------------------------
Анализ: White Widdow / Silhouette
--------------------------------------------------------------------------------

DR Пики RMS Продолжительность трека
--------------------------------------------------------------------------------
DR5 0.00 дБ -7.01 дБ 3:25 01-Stranded
DR5 0.00 дБ -5.99 дБ 5:08 02-Surrender My Heart
DR6 0.00 дБ -7.75 дБ 3:19 03-Living For The Night
DR5 0.00 дБ -6.44 дБ 3:44 04-Last Chance For Love
DR6 0.00 дБ -6.92 дБ 3:29 05-Wild At Heart
DR6 0.00 дБ -7.33 дБ 3:52 06-Damage Is Done
DR5 0.00 дБ -6.45 дБ 3:27 07-Game Of Love
DR6 0.00 дБ -6.72 дБ 3:26 08-Smile For The Camera
DR6 0.00 дБ -7.06 дБ 4:20 09-Waited
DR5 0.00 дБ -5.64 дБ 3:19 10-Sleeping With The Enemy
--------------------------------------------------------------------------------

Количество треков: 10
Реальные значения DR: DR5

Частота: 44100 Гц
Каналов: 2
Разрядность: 16
Битрейт: 1072 кбит/с
Кодек: FLAC
================================================================================
YouTube
Время раздачи: Пн-Вс с 22:00 до 07:00 (до появления первых 3-5 скачавших)


Поглощение/вытеснение
Только с согласия релизера

Bigbeer
[NNMClub.to]_White Widdow - Silhouette (2016).torrent
 Торрент:   Зарегистрирован
 
Примагнититься

Зарегистрируйтесь и скачайте торрент!
13,1 KB
 Зарегистрирован:   11 Янв 2017 19:11:23
 Размер:   292 MB  (
 Рейтинг:   4,5 (Голосов: 10)
 Поблагодарили:   49
 Проверка:   Оформление проверено модератором 12 Янв 2017 12:02:39
Как cкачать  ·  Как раздать  ·  Правильно оформить  ·  Поднять ратио!  
Показать сообщения:   
Начать новую тему   Ответить на тему    Торрент-трекер NNM-Club -> Rock, Alternative, Punk, Metal -> Rock (Lossless) Часовой пояс: GMT + 3
Страница 1 из 1