Интеллигентный торрент-трекер
canvas not supported
Нас вместе: 4 301 546

Mark 'Mississippi Slide' Jeghers - The Bluez Projekt (2016) WEB [FLAC|Lossless|tracks + .cue] <Blues / Blues-Rock>


 
 
RSS
Начать новую тему   Ответить на тему    Торрент-трекер NNM-Club -> Jazz, Blues, Soul -> Blues, Soul (Lossless)
Автор Сообщение
Svetojar ®
RG Music
 
Стаж: 3 мес. 8 дней
Сообщений: 496
Ratio: 199,462
Поблагодарили: 20283
100%
Откуда: Тюмень
Mark 'Mississippi Slide' Jeghers - The Bluez Projekt (2016) WEB
Год: 2016
Жанр: Blues / Blues-Rock
Издание: Mark "Mississippi Slide" Jeghers - 814519022435
Источник: ссылка
Продолжительность: 01:16:37

Кодек: FLAC
Битрейт: Lossless
Тип рипа: tracks + .cue

Треклист:
1. Sadie (06:22)
2. Down in the Bottom (04:59)
3. Goin' Down South (04:48)
4. Bromophenol Blues (06:13)
5. Terraplane Blues (02:39)
6. Baby What You Want Me to Do (04:03)
7. Stormy Monday (05:21)
8. Slidin' Delta (04:21)
9. Stink Butt Doggy Blues (05:32)
10. Have You Ever Been Mistreated (05:12)
11. Walkin' Blues (01:59)
12. Rats 'n' Roaches (05:52)
13. Yellow Dog (06:29)
14. Stack-O-Lee (05:13)
15. If I Leave This World Tomorrow / When I Get Home (07:24)
foobar2000 1.3.14 / Замер динамического диапазона (DR) 1.1.1
Дата отчёта: 2017-01-11 22:49:42

--------------------------------------------------------------------------------
Анализ: Mark 'Mississippi Slide' Jeghers / The Bluez Projekt
--------------------------------------------------------------------------------

DR Пики RMS Продолжительность трека
--------------------------------------------------------------------------------
DR9 0.00 дБ -10.79 дБ 6:23 01-Sadie
DR13 0.00 дБ -14.36 дБ 5:00 02-Down in the Bottom
DR11 0.00 дБ -12.37 дБ 4:49 03-Goin' Down South
DR12 0.00 дБ -13.46 дБ 6:14 04-Bromophenol Blues
DR10 0.00 дБ -12.66 дБ 2:40 05-Terraplane Blues
DR11 0.00 дБ -12.37 дБ 4:04 06-Baby What You Want Me to Do
DR12 0.00 дБ -15.11 дБ 5:21 07-Stormy Monday
DR12 0.00 дБ -15.19 дБ 4:22 08-Slidin' Delta
DR12 0.00 дБ -13.21 дБ 5:33 09-Stink Butt Doggy Blues
DR12 0.00 дБ -13.79 дБ 5:12 10-Have You Ever Been Mistreated
DR14 -0.48 дБ -16.37 дБ 1:59 11-Walkin' Blues
DR11 0.00 дБ -12.78 дБ 5:52 12-Rats 'n' Roaches
DR11 0.00 дБ -13.06 дБ 6:29 13-Yellow Dog
DR8 0.00 дБ -9.74 дБ 5:14 14-Stack-O-Lee
DR11 0.00 дБ -14.96 дБ 7:24 15-If I Leave This World Tomorrow / When I Get Home
--------------------------------------------------------------------------------

Количество треков: 15
Реальные значения DR: DR11

Частота: 44100 Гц
Каналов: 2
Разрядность: 16
Битрейт: 852 кбит/с
Кодек: FLAC
================================================================================




Поглощение/вытеснение
Только с согласия релизера

gvm55

Время раздачи: Пн-Вс с 22:00 до 07:00 (до появления первых 3-5 скачавших)
[NNMClub.to]_Mark 'Mississippi Slide' Jeghers - The Bluez Project (2016).torrent
 Торрент:   Зарегистрирован
 
Примагнититься
Free Leech
Зарегистрируйтесь и скачайте торрент!
20,2 KB
 Зарегистрирован:   11 Янв 2017 21:07:00
 Размер:   465 MB  (
 Рейтинг:    (Голосов: 8)
 Поблагодарили:   60
 Проверка:   Оформление проверено модератором 12 Янв 2017 08:22:08
Как cкачать  ·  Как раздать  ·  Правильно оформить  ·  Поднять ратио!  
Показать сообщения:   
Начать новую тему   Ответить на тему    Торрент-трекер NNM-Club -> Jazz, Blues, Soul -> Blues, Soul (Lossless) Часовой пояс: GMT + 3
Страница 1 из 1