Интеллигентный торрент-трекер
canvas not supported
Нас вместе: 4 343 137

Kuzu no Honkai / Scum's Wish / Тайные желания отвергнутых [2017, TV, 12 ep] WEBRip Hi10p 720p Raw


 
 
RSS
Начать новую тему   Ответить на тему    Торрент-трекер NNM-Club -> Аниме сериалы -> HD и BDRip
Автор Сообщение
Ampho_DnB ®
RG Releasers
 
Стаж: 5 лет 3 мес.
Сообщений: 4000
Ratio: 177,589
Поблагодарили: 65585
100%
Откуда: дует?
roody.gif
Kuzu no Honkai / Scum's Wish / Тайные желания отвергнутых
Жанр: романтика, школа, драма
Тип: TV-сериал
Продолжительность: 12 эпизодов по 25 минут
Выпуск: c 13.01.2017 по 31.03.2017
Автор: Ёкояри Мэнго
Снято по манге: Kuzu no Honkai
Режиссер: Андо Масаоми
Производство: Lerche
Информационные ссылки: AniDB || World Art || MAL || ANN
Перевод:
  • Русские субтитры от AOS Team
    Переводчик: Bourbonice, Редактор: Mr. A. Grayson

Описание:
На первый взгляд Муги Авая и Ханаби Ясураока кажутся идеальной парой. Оба привлекательные и общительные, они отлично подходят друг другу. Так что окружающие даже и не подозревают, что объединяет эту пару совсем не любовь, а горькая тайна, которую они скрывают. Дело в том, что оба безнадежно влюблены и, к сожалению, не друг в друга. Они изображают парочку, стараясь спастись от боли и одиночества. Муги влюблен в Аканэ Минагаву, учительницу, которая одно время была его репетитором. Ханаби тоже любит учителя, с которым с детства знакома — Наруми Каная. Молодой человек с давних пор является другом семьи. Два подростка ищут друг в друге утешение, убежище, где хоть ненадолго можно спрятаться от страданий по тем, рядом с кем им быть не суждено. Пусть их и объединяет физическая близость, но смогут ли они по-настоящему избавить друг друга от одиночества? Или всё так и останется по-прежнему?
Качество: WEBRip | Энкод: HorribleSubs
Язык озвучки: Японский
Формат: MKV
Видео: x264 (10 bit) 1280x720, ~2 003 kbps, 23.976 fps
Аудио: AAC, 192 kbps, 48.0 kHz, 2 ch
Субтитры: ASS, Отключаемые (встроенные)
Субтитры: ASS, Отключаемые (внешними файлами)
01. Загадай желание
02. Я здесь ради этого тепла
03. Покажи мне любовь (не сон)
04. Гадина!
05. Дитя разрушения
06. Добро пожаловать в Измерение Х
07. Много любви
08. Сладкий отказ
09. Пловец баттерфляем
10. Хрупкие и пустые
11. Боже милостивый
12. История двоих
General
Unique ID : 235090284240399121411585600830766973672 (0xB0DCBDE6F3E6BBD09B1F8258C03602E8)
Complete name : Kuzu no Honkai\[HorribleSubs] Kuzu no Honkai - 01 [720p].mkv
Format : Matroska
Format version : Version 4 / Version 2
File size : 360 MiB
Duration : 22 min 54 s
Overall bit rate : 2 195 kb/s
Encoded date : UTC 2017-01-12 19:09:52
Writing application : mkvmerge v8.3.0 ('Over the Horizon') 32bit
Writing library : libebml v1.3.1 + libmatroska v1.4.2
Attachments : OpenSans-Semibold.ttf

Video
ID : 1
Format : AVC
Format/Info : Advanced Video Codec
Format profile : High 10@L5
Format settings, CABAC : Yes
Format settings, ReFrames : 16 frames
Codec ID : V_MPEG4/ISO/AVC
Duration : 22 min 54 s
Bit rate : 2 003 kb/s
Width : 1 280 pixels
Height : 720 pixels
Display aspect ratio : 16:9
Frame rate mode : Constant
Frame rate : 23.976 (24000/1001) FPS
Color space : YUV
Chroma subsampling : 4:2:0
Bit depth : 10 bits
Scan type : Progressive
Bits/(Pixel*Frame) : 0.091
Stream size : 328 MiB (91%)
Writing library : x264 core 148 r2665 a01e339
Encoding settings : cabac=1 / ref=16 / deblock=1:1:1 / analyse=0x3:0x133 / me=umh / subme=10 / psy=1 / psy_rd=0.70:0.10 / mixed_ref=1 / me_range=24 / chroma_me=1 / trellis=2 / 8x8dct=1 / cqm=0 / deadzone=21,11 / fast_pskip=1 / chroma_qp_offset=-3 / threads=22 / lookahead_threads=5 / sliced_threads=0 / nr=0 / decimate=1 / interlaced=0 / bluray_compat=0 / constrained_intra=0 / bframes=10 / b_pyramid=2 / b_adapt=2 / b_bias=0 / direct=3 / weightb=1 / open_gop=0 / weightp=2 / keyint=250 / keyint_min=23 / scenecut=40 / intra_refresh=0 / rc_lookahead=60 / rc=crf / mbtree=1 / crf=18.0 / qcomp=0.60 / qpmin=0 / qpmax=81 / qpstep=4 / ip_ratio=1.40 / aq=3:0.80
Language : English
Default : Yes
Forced : No

Audio
ID : 2
Format : AAC
Format/Info : Advanced Audio Codec
Format profile : LC
Codec ID : A_AAC
Duration : 22 min 54 s
Bit rate : 192 kb/s
Channel(s) : 2 channels
Channel positions : Front: L R
Sampling rate : 48.0 kHz
Frame rate : 46.875 FPS (1024 spf)
Compression mode : Lossy
Stream size : 30.9 MiB (9%)
Default : Yes
Forced : No

Text
ID : 3
Format : ASS
Codec ID : S_TEXT/ASS
Codec ID/Info : Advanced Sub Station Alpha
Duration : 22 min 48 s
Bit rate : 86 b/s
Count of elements : 312
Compression mode : Lossless
Stream size : 14.4 KiB (0%)
Language : English
Default : Yes
Forced : No


Все одноименные релизы в Клубе
Время раздачи: До первых сидов
[NNMClub.to]_Kuzu no Honkai.torrent
 Торрент:   Зарегистрирован
 
Примагнититься

Зарегистрируйтесь и скачайте торрент!
22,4 KB
 Зарегистрирован:   02 Апр 2017 20:21:32
 Размер:   4,06 GB  (
 Рейтинг:   4,3 (Голосов: 30)
 Поблагодарили:   86
 Проверка:   Оформление проверено модератором 02 Апр 2017 21:35:37
Как cкачать  ·  Как раздать  ·  Правильно оформить  ·  Поднять ратио!  
Загрузка...
Witch_King
Стаж: 5 лет 8 мес.
Сообщений: 19
Ratio: 1,45
100%
pirates.png
аниме очень качественное в плане рисовки и звука
Ampho_DnB ®
RG Releasers
 
Стаж: 5 лет 3 мес.
Сообщений: 4000
Ratio: 177,589
Поблагодарили: 65585
100%
Откуда: дует?
roody.gif
Торрент обновлен. Добавлены 11 и 12 серии.
Релиз завершен.
Показать сообщения:   
Начать новую тему   Ответить на тему    Торрент-трекер NNM-Club -> Аниме сериалы -> HD и BDRip Часовой пояс: GMT + 3
Страница 1 из 1

День смеха и юмора отмечается 1 апреля. В этот день принято шутить и разыгрывать друзей, коллег по работе, домашних, словом всех, с кем Вам предстоит увидеться в этот праздник – первое апреля. Первоапрельские розыгрыши, приколы на 1 апреля, первоапрельские шутки должны быть веселыми и безобидными. Приколы на 1 апреля, как правило, удаются в том случае, если человек забыл какой сегодня месяц и день, словом, забыл про 1 апреля – день смеха, шуток, день дурака.

Желаем Вам много улыбок и хорошего настроения в этот день!
С Уважением, администрация NNM-Club :)