Интеллигентный торрент-трекер
canvas not supported
Нас вместе: 4 194 891

Kuzu no Honkai / Scum's Wish / Тайные желания отвергнутых [2017, TV, 1 из 11 ep] WEBRip Hi10p 720p Raw


 
 
RSS
Начать новую тему   Ответить на тему    Торрент-трекер NNM-Club -> Аниме сериалы -> Онгоинги
Автор Сообщение
Ampho_DnB ®
RG Releasers
 
Стаж: 5 лет
Сообщений: 3864
Ratio: 167,154
Поблагодарили: 60183
100%
Откуда: дует?
roody.gif
Kuzu no Honkai / Scum's Wish / Тайные желания отвергнутых
Жанр: романтика, школа, драма
Тип: TV-сериал
Продолжительность: 1 из 11 эпизодов по 25 минут
Выпуск: c 13.01.2017
Автор: Ёкояри Мэнго
Снято по манге: Kuzu no Honkai
Режиссер: Андо Масаоми
Производство: Lerche
Информационные ссылки: AniDB || World Art || MAL || ANN
Перевод:
  • Русские субтитры от SovetRomantica
    Переводчик: LiteSun, Редактор: Akira

Описание:
На первый взгляд Муги Авая и Ханаби Ясураока кажутся идеальной парой. Оба привлекательные и общительные, они отлично подходят друг другу. Так что окружающие даже и не подозревают, что объединяет эту пару совсем не любовь, а горькая тайна, которую они скрывают. Дело в том, что оба безнадежно влюблены и, к сожалению, не друг в друга. Они изображают парочку, стараясь спастись от боли и одиночества. Муги влюблен в Аканэ Минагаву, учительницу, которая одно время была его репетитором. Ханаби тоже любит учителя, с которым с детства знакома — Наруми Каная. Молодой человек с давних пор является другом семьи. Два подростка ищут друг в друге утешение, убежище, где хоть ненадолго можно спрятаться от страданий по тем, рядом с кем им быть не суждено. Пусть их и объединяет физическая близость, но смогут ли они по-настоящему избавить друг друга от одиночества? Или всё так и останется по-прежнему?
Качество: WEBRip | Энкод: Commie
Формат: MKV
Видео: x264 (10 bit) 1280x720, ~1 876 kbps, 23.976 fps
Аудио: E-AC-3, 224 kbps, 48.0 kHz, 2 ch
Субтитры: ASS, Отключаемые (встроенные)
Субтитры: ASS, Отключаемые (внешними файлами)
01. Загадай желание
General
Unique ID : 245308691253349597042470014309333218033 (0xB88CBC43D9E7430AA451193851B032F1)
Complete name : Kuzu no Honkai\[Commie] Kuzu no Honkai - 01 [265B0769].mkv
Format : Matroska
Format version : Version 4 / Version 2
File size : 350 MiB
Duration : 22 min 55 s
Overall bit rate : 2 134 kb/s
Encoded date : UTC 2017-01-12 07:39:03
Writing application : mkvmerge v9.7.1 ('Pandemonium') 64bit
Writing library : libebml v1.3.4 + libmatroska v1.4.5
Attachments : appleberry_with_cyrillic.ttf / ArialRoundedMTStd-ExtraBold.otf / ComicBookFun-Regular.ttf / DJB Chalk It Up.ttf / FONTIN_SANS_0.OTF / FONTIN_SANS_BI_0.OTF / FRABK.TTF / framd_0.ttf / GOUDOSI.TTF / IwaMinPro-Lt-Madoka_0.ttf

Video
ID : 1
Format : AVC
Format/Info : Advanced Video Codec
Format profile : High 10@L5
Format settings, CABAC : Yes
Format settings, ReFrames : 16 frames
Codec ID : V_MPEG4/ISO/AVC
Duration : 22 min 55 s
Bit rate : 1 896 kb/s
Width : 1 280 pixels
Height : 720 pixels
Display aspect ratio : 16:9
Frame rate mode : Constant
Frame rate : 23.976 (24000/1001) FPS
Color space : YUV
Chroma subsampling : 4:2:0
Bit depth : 10 bits
Scan type : Progressive
Bits/(Pixel*Frame) : 0.086
Stream size : 311 MiB (89%)
Writing library : x264 core 148 r2744+55 950084e t_mod_Custom [10-bit@all X86_64]
Encoding settings : cabac=1 / ref=16 / deblock=1:0:0 / analyse=0x3:0x133 / me=umh / subme=10 / psy=1 / fade_compensate=0.70 / psy_rd=0.60:0.15 / mixed_ref=1 / me_range=24 / chroma_me=1 / trellis=2 / 8x8dct=1 / cqm=0 / deadzone=21,11 / fast_pskip=1 / chroma_qp_offset=-3 / threads=6 / lookahead_threads=1 / sliced_threads=0 / nr=0 / decimate=1 / interlaced=0 / bluray_compat=0 / constrained_intra=0 / fgo=0 / bframes=10 / b_pyramid=2 / b_adapt=2 / b_bias=0 / direct=3 / weightb=1 / open_gop=0 / weightp=2 / keyint=250 / keyint_min=23 / scenecut=40 / intra_refresh=0 / rc_lookahead=60 / rc=crf / mbtree=1 / crf=18.0000 / qcomp=0.70 / qpmin=0:0:0 / qpmax=81:81:81 / qpstep=4 / ip_ratio=1.40 / aq=3:0.80 / aq-sensitivity=10.00 / aq-factor=1.00:1.00:1.00 / aq2=0 / aq3=0
Language : English
Default : Yes
Forced : No

Audio
ID : 2
Format : E-AC-3
Format/Info : Enhanced Audio Coding 3
Format settings, Endianness : Big
Codec ID : A_EAC3
Duration : 22 min 55 s
Bit rate mode : Constant
Bit rate : 224 kb/s
Channel(s) : 2 channels
Channel positions : Front: L R
Sampling rate : 48.0 kHz
Frame rate : 187.500 FPS (256 spf)
Compression mode : Lossy
Stream size : 36.7 MiB (10%)
Language : Japanese
Default : Yes
Forced : No

Text
ID : 3
Format : ASS
Codec ID : S_TEXT/ASS
Codec ID/Info : Advanced Sub Station Alpha
Duration : 22 min 49 s
Bit rate : 849 b/s
Count of elements : 1292
Compression mode : Lossless
Stream size : 142 KiB (0%)
Language : English
Default : Yes
Forced : No

Menu
00:00:00.033 : en:Intro
00:03:21.970 : en:OP
00:04:52.020 : en:Part A
00:18:29.080 : en:Part B
00:21:25.220 : en:ED


Все одноименные релизы в Клубе
Время раздачи: До первых сидов
[NNMClub.to]_Kuzu no Honkai.torrent
 Торрент:   Зарегистрирован
 
Примагнититься
Free Leech
Зарегистрируйтесь и скачайте торрент!
14,4 KB
 Зарегистрирован:   13 Янв 2017 00:41:44
 Размер:   353 MB  (
 Рейтинг:   4,7 (Голосов: 14)
 Поблагодарили:   30
 Проверка:   Оформление проверено модератором 13 Янв 2017 00:52:13
Как cкачать  ·  Как раздать  ·  Правильно оформить  ·  Поднять ратио!  
Показать сообщения:   
Начать новую тему   Ответить на тему    Торрент-трекер NNM-Club -> Аниме сериалы -> Онгоинги Часовой пояс: GMT + 3
Страница 1 из 1