Интеллигентный торрент-трекер
canvas not supported
Нас вместе: 4 345 505

Ксения Федулова - Блюзорукость (2013) [FLAC|Lossless|image + .cue] <Blues>


 
 
RSS
Начать новую тему   Ответить на тему    Торрент-трекер NNM-Club -> Jazz, Blues, Soul -> Blues, Soul (Lossless)
Автор Сообщение
Svetojar ®
RG Music
 
Стаж: 6 мес. 7 дней
Сообщений: 690
Ratio: 202,111
Поблагодарили: 29123
100%
Ксения Федулова - Блюзорукость (2013)
Год: 2013
Жанр: Blues
Издание: студия «ГрассМейстер»
Продолжительность: 00:48:42

Кодек: FLAC
Битрейт: Lossless
Тип рипа: image + .cue

Треклист:
01. Прощай, моя боль [2:47]
02. Не повезло [4:40]
03. Жизнь - только хобби [3:44]
04. Серьги [4:49]
05. Мисс Ростов-на-Дону [4:09]
06. Половинка [5:35]
07. Не стало его [3:16]
08. Дороги были чужими [4:17]
09. Любовь порой слепа [4:32]
10. Блюз окраины дикой страны [4:03]
11. Эй, Лилёк [3:01]
12. Лучше не трогать [3:41]
foobar2000 1.3.14 / Замер динамического диапазона (DR) 1.1.1
Дата отчёта: 2017-01-13 19:21:28

--------------------------------------------------------------------------------
Анализ: Ксения Федулова / Блюзорукость
--------------------------------------------------------------------------------

DR Пики RMS Продолжительность трека
--------------------------------------------------------------------------------
DR5 0.00 дБ -5.92 дБ 2:47 01-Прощай, моя боль
DR6 0.00 дБ -7.42 дБ 4:40 02-Не повезло
DR7 0.00 дБ -7.79 дБ 3:45 03-Жизнь - только хобби
DR7 0.00 дБ -8.15 дБ 4:50 04-Серьги
DR7 0.00 дБ -7.91 дБ 4:09 05-Мисс Ростов-на-Дону
DR6 0.00 дБ -8.20 дБ 5:36 06-Половинка
DR7 0.00 дБ -8.81 дБ 3:16 07-Не стало его
DR6 0.00 дБ -7.23 дБ 4:17 08-Дороги были чужими
DR7 0.00 дБ -7.98 дБ 4:33 09-Любовь порой слепа
DR7 0.00 дБ -8.05 дБ 4:03 10-Блюз окраины дикой страны
DR7 0.00 дБ -8.47 дБ 3:02 11-Эй, Лилёк
DR6 0.00 дБ -6.60 дБ 3:42 12-Лучше не трогать
--------------------------------------------------------------------------------

Количество треков: 12
Реальные значения DR: DR7

Частота: 44100 Гц
Каналов: 2
Разрядность: 16
Битрейт: 926 кбит/с
Кодек: FLAC
================================================================================
YouTube
Время раздачи: Пн-Вс с 22:00 до 07:00 (до появления первых 3-5 скачавших)


Поглощение/вытеснение
Только с согласия релизера

Beijing65
[NNMClub.to]_Kseniya Fedulova - 2013 - Blyuzorukost'.torrent
 Торрент: Платиновая раздача  Зарегистрирован
 
Примагнититься

Скачать
 Зарегистрирован:   13 Янв 2017 17:36:50
 Размер:   338 MB  (
 Рейтинг:   4,5 (Голосов: 11)
 Поблагодарили:   87
 Проверка:   Оформление проверено модератором 14 Янв 2017 14:23:43
Как cкачать  ·  Как раздать  ·  Правильно оформить  ·  Поднять ратио!  
Загрузка...
dorognik74
Стаж: 8 лет 2 мес.
Сообщений: 1228
Ratio: 4,626
Поблагодарили: 100
82.1%
Откуда: Россия
russia.gif
А ничего так, вроде бы? Слушается :респект: . Хоть и не любитель этого жанра. Чем-то похоже на "Чиж"(?)

Добавлено спустя 13 минут 37 секунд:

Лучше не трогать - интересная вещица Я счастлива
hfhtku
Стаж: 4 года 11 мес.
Сообщений: 33
Ratio: 12,995
21.05%
Очень понравилось. Девчонка великолепный музыкант. Добавить бы немножко клавиш.
Показать сообщения:   
Начать новую тему   Ответить на тему    Торрент-трекер NNM-Club -> Jazz, Blues, Soul -> Blues, Soul (Lossless) Часовой пояс: GMT + 3
Страница 1 из 1