Интеллигентный торрент-трекер
canvas not supported
Нас вместе: 4 343 686

Heart - Live At The Royal Albert Hall (2016) [FLAC|Lossless|image + .cue] <Hard Rock>


 
 
RSS
Начать новую тему   Ответить на тему    Торрент-трекер NNM-Club -> Rock, Alternative, Punk, Metal -> Rock (Lossless)
Автор Сообщение
Svetojar ®
RG Music
 
Стаж: 4 мес. 15 дней
Сообщений: 645
Ratio: 195,875
Поблагодарили: 26363
100%
Heart - Live At The Royal Albert Hall (2016)
Год: 2016
Жанр: Hard Rock
Издание: Eagle Records - EAGCD654
Продолжительность: 01:14:52

Кодек: FLAC
Битрейт: Lossless
Тип рипа: image + .cue

Треклист:
1. Magic Man
2. Heaven
3. Dreamboat Annie
4. What About Love
5. I Jump
6. Sweet Darlin'
7. Two
8. These Dreams
9. Alone
10. Beautiful Broken
11. Mashallah!
12. Silver Wheels
13. Crazy On You
14. Sand
15. No Quarter
16. Barracuda
17. Kick It Out
foobar2000 1.3.14 / Замер динамического диапазона (DR) 1.1.1
Дата отчёта: 2017-01-14 00:10:38

--------------------------------------------------------------------------------
Анализ: Heart / Live At The Royal Albert Hall
--------------------------------------------------------------------------------

DR Пики RMS Продолжительность трека
--------------------------------------------------------------------------------
DR6 -0.14 дБ -6.76 дБ 5:44 01-Magic Man
DR6 -0.14 дБ -7.05 дБ 6:06 02-Heaven
DR8 -0.14 дБ -9.98 дБ 3:20 03-Dreamboat Annie
DR5 -0.11 дБ -7.03 дБ 4:42 04-What About Love
DR5 -0.13 дБ -6.81 дБ 3:40 05-I Jump
DR6 -0.14 дБ -8.37 дБ 4:01 06-Sweet Darlin'
DR5 -0.14 дБ -7.27 дБ 4:33 07-Two
DR7 -0.14 дБ -9.27 дБ 4:57 08-These Dreams
DR6 -0.14 дБ -9.85 дБ 4:37 09-Alone
DR5 -0.14 дБ -6.18 дБ 2:33 10-Beautiful Broken
DR5 -0.14 дБ -6.91 дБ 4:21 11-Mashallah!
DR11 -0.14 дБ -13.23 дБ 1:53 12-Silver Wheels
DR5 -0.14 дБ -6.97 дБ 4:24 13-Crazy On You
DR8 -0.14 дБ -11.17 дБ 4:04 14-Sand
DR5 -0.14 дБ -7.62 дБ 6:56 15-No Quarter
DR7 -0.14 дБ -7.48 дБ 5:25 16-Barracuda
DR5 -0.14 дБ -6.69 дБ 3:35 17-Kick It Out
--------------------------------------------------------------------------------

Количество треков: 17
Реальные значения DR: DR6

Частота: 44100 Гц
Каналов: 2
Разрядность: 16
Битрейт: 893 кбит/с
Кодек: FLAC
================================================================================
YouTube
Время раздачи: По мере возможности (до появления первых 3-5 скачавших)


Поглощение/вытеснение
Только с согласия релизера

Pashketan
[NNMClub.to]_2016 - Live At The Royal Albert Hall (Eagle Records, EAGCD654, Germany).torrent
 Торрент: Платиновая раздача  Зарегистрирован
 
Примагнититься

Скачать
 Зарегистрирован:   13 Янв 2017 22:27:30
 Размер:   519 MB  (
 Рейтинг:    (Голосов: 9)
 Поблагодарили:   59
 Проверка:   Оформление проверено модератором 14 Янв 2017 07:39:38
Как cкачать  ·  Как раздать  ·  Правильно оформить  ·  Поднять ратио!  
Загрузка...
Показать сообщения:   
Начать новую тему   Ответить на тему    Торрент-трекер NNM-Club -> Rock, Alternative, Punk, Metal -> Rock (Lossless) Часовой пояс: GMT + 3
Страница 1 из 1

День смеха и юмора отмечается 1 апреля. В этот день принято шутить и разыгрывать друзей, коллег по работе, домашних, словом всех, с кем Вам предстоит увидеться в этот праздник – первое апреля. Первоапрельские розыгрыши, приколы на 1 апреля, первоапрельские шутки должны быть веселыми и безобидными. Приколы на 1 апреля, как правило, удаются в том случае, если человек забыл какой сегодня месяц и день, словом, забыл про 1 апреля – день смеха, шуток, день дурака.

Желаем Вам много улыбок и хорошего настроения в этот день!
С Уважением, администрация NNM-Club :)