Интеллигентный торрент-трекер
canvas not supported
Нас вместе: 4 196 643

Seamus Blake & Chris Cheek - Let's Call The Whole Thing Off (2016) WEB [FLAC|Lossless|WEB-DL|tracks + .cue] <Mainstream Jazz, Cool Jazz>


 
 
RSS
Начать новую тему   Ответить на тему    Торрент-трекер NNM-Club -> Jazz, Blues, Soul -> Jazz (Lossless)
Автор Сообщение
Svetojar ®
Стаж: 1 мес. 8 дней
Сообщений: 109
Ratio: 79,436
Поблагодарили: 4076
100%
Откуда: Тюмень
Seamus Blake & Chris Cheek - Let's Call The Whole Thing Off (2016) WEB
Год: 2016
Жанр: Mainstream Jazz, Cool Jazz
Издание: Criss Cross Jazz - 1388
Источник: ссылка
Продолжительность: 01:02:14

Кодек: FLAC
Битрейт: Lossless|WEB-DL
Тип рипа: tracks + .cue

Треклист:
1. Let's Call The Whole Thing Off
2. Choro Blanco
3. Lunar
4. La Cancion Que Falta
5. Limehouse Blues
6. Surfboard
7. Count Your Blessings
8. Little Evil
foobar2000 1.3.14 / Замер динамического диапазона (DR) 1.1.1
Дата отчёта: 2017-01-14 13:09:59

--------------------------------------------------------------------------------
Анализ: Seamus Blake, Chris Cheek & Reeds Ramble / Let's Call The Whole Thing Off
--------------------------------------------------------------------------------

DR Пики RMS Продолжительность трека
--------------------------------------------------------------------------------
DR12 -1.40 дБ -16.36 дБ 9:04 01-Let's Call The Whole Thing Off
DR12 -1.41 дБ -15.27 дБ 5:41 02-Choro Blanco
DR12 -1.29 дБ -16.29 дБ 7:39 03-Lunar
DR12 -1.42 дБ -16.90 дБ 9:38 04-La Cancion Que Falta
DR13 -1.27 дБ -16.72 дБ 8:04 05-Limehouse Blues
DR12 -1.22 дБ -15.90 дБ 8:34 06-Surfboard
DR11 -1.42 дБ -15.75 дБ 8:08 07-Count Your Blessings
DR12 -1.18 дБ -14.93 дБ 5:27 08-Little Evil
--------------------------------------------------------------------------------

Количество треков: 8
Реальные значения DR: DR12

Частота: 44100 Гц
Каналов: 2
Разрядность: 16
Битрейт: 872 кбит/с
Кодек: FLAC
================================================================================
Время раздачи: По мере возможности (до появления первых 3-5 скачавших)
[NNMClub.to]_Seamus Blake & Chris Cheek - Let's Call The Whole Thing Off (2016) [FLAC].torrent
 Торрент:   Зарегистрирован
 
Примагнититься
Free Leech
Зарегистрируйтесь и скачайте торрент!
16,1 KB
 Зарегистрирован:   14 Янв 2017 11:20:30
 Размер:   371 MB  (
 Рейтинг:    (Голосов: 5)
 Поблагодарили:   32
 Проверка:   Оформление проверено модератором 14 Янв 2017 14:17:44
Как cкачать  ·  Как раздать  ·  Правильно оформить  ·  Поднять ратио!  
Показать сообщения:   
Начать новую тему   Ответить на тему    Торрент-трекер NNM-Club -> Jazz, Blues, Soul -> Jazz (Lossless) Часовой пояс: GMT + 3
Страница 1 из 1