Интеллигентный торрент-трекер
canvas not supported
Нас вместе: 4 303 222

The Marcus King Band - The Marcus King Band (2016) [FLAC|Lossless|image + .cue] <Soul-influenced Psychedelic Southern Rock>


 
 
RSS
Начать новую тему   Ответить на тему    Торрент-трекер NNM-Club -> Rock, Alternative, Punk, Metal -> Rock (Lossless)
Автор Сообщение
Svetojar ®
RG Music
 
Стаж: 3 мес. 9 дней
Сообщений: 501
Ratio: 201,834
Поблагодарили: 20552
100%
Откуда: Тюмень
The Marcus King Band - The Marcus King Band (2016)
Год: 2016
Жанр: Soul-influenced Psychedelic Southern Rock
Издание: Time Blues
Продолжительность: 00:58:30

Кодек: FLAC
Битрейт: Lossless
Тип рипа: image + .cue

Треклист:
01. Ain't Nothin' Wrong With That
02. Devil's Land
03. Rita Is Gone
04. Self-Hatred (Featuring Derek Trucks)
05. Jealous Man
06. The Man You Didn't Know
07. Plant Your Corn Early
08. Radio Soldier
09. Guitar In My Hands
11. Virginia (Featuring Warren Haynes)
12. Sorry 'Bout Your Lover
13. Untitled Bonus Track
foobar2000 1.3.14 / Замер динамического диапазона (DR) 1.1.1
Дата отчёта: 2017-01-14 13:24:21

--------------------------------------------------------------------------------
Анализ: Marcus King Band / Marcus King Band
--------------------------------------------------------------------------------

DR Пики RMS Продолжительность трека
--------------------------------------------------------------------------------
DR7 0.00 дБ -8.25 дБ 3:48 01-Ain't Nothin' Wrong With That
DR6 -0.10 дБ -7.64 дБ 5:10 02-Devil's Land
DR8 -0.27 дБ -9.69 дБ 4:26 03-Rita Is Gone
DR6 -0.31 дБ -7.91 дБ 5:34 04-Self-Hatred (Featuring Derek Trucks)
DR7 0.00 дБ -8.20 дБ 4:35 05-Jealous Man
DR7 -0.22 дБ -7.92 дБ 4:41 06-The Man You Didn't Know
DR7 -0.10 дБ -8.15 дБ 5:08 07-Plant Your Corn Early
DR7 -0.20 дБ -8.11 дБ 4:53 08-Radio Soldier
DR7 -0.24 дБ -9.35 дБ 2:54 09-Guitar In My Hands
DR6 0.00 дБ -7.32 дБ 5:34 10-Thespian Espionage
DR7 -0.06 дБ -7.60 дБ 6:35 11-Virginia (Featuring Warren Haynes)
DR7 -0.01 дБ -8.22 дБ 3:26 12-Sorry 'Bout Your Lover
DR8 -0.30 дБ -11.33 дБ 1:45 13-Untitled Bonus Track
--------------------------------------------------------------------------------

Количество треков: 13
Реальные значения DR: DR7

Частота: 44100 Гц
Каналов: 2
Разрядность: 16
Битрейт: 902 кбит/с
Кодек: FLAC
================================================================================
YouTube
Время раздачи: По мере возможности (до появления первых 3-5 скачавших)


Поглощение/вытеснение
Только с согласия релизера

Bigbeer
[NNMClub.to]_The Marcus King Band - The Marcus King Band - 2016.torrent
 Торрент:   Зарегистрирован
 
Примагнититься
Free Leech
Зарегистрируйтесь и скачайте торрент!
17,1 KB
 Зарегистрирован:   14 Янв 2017 11:41:47
 Размер:   402 MB  (
 Рейтинг:    (Голосов: 3)
 Поблагодарили:   35
 Проверка:   Оформление проверено модератором 14 Янв 2017 20:20:29
Как cкачать  ·  Как раздать  ·  Правильно оформить  ·  Поднять ратио!  
Показать сообщения:   
Начать новую тему   Ответить на тему    Торрент-трекер NNM-Club -> Rock, Alternative, Punk, Metal -> Rock (Lossless) Часовой пояс: GMT + 3
Страница 1 из 1