Интеллигентный торрент-трекер
canvas not supported
Нас вместе: 4 261 835

The Mercury Tree - Permutations (2016) [FLAC|Lossless|WEB-DL|tracks + .cue] <Crossover Prog>


 
 
RSS
Начать новую тему   Ответить на тему    Торрент-трекер NNM-Club -> Rock, Alternative, Punk, Metal -> Rock (Lossless)
Автор Сообщение
Svetojar ®
RG Музыки
 
Стаж: 2 мес. 12 дней
Сообщений: 391
Ratio: 155,785
Поблагодарили: 15531
100%
Откуда: Тюмень
The Mercury Tree - Permutations (2016) WEB
Год: 2016
Жанр: Crossover Prog
Источник: ссылка
Продолжительность: 01:06:23

Кодек: FLAC
Битрейт: Lossless
Тип рипа: tracks + .cue

Треклист:
1. Symptoms (6:59)
2. Exhume the Worst (4:56)
3. Permutations (10:42)
4. Ether / Ore (4:08)
5. Placeholder (4:32)
6. Unintelligible (5:06)
7. Sympathesizer (4:42)
8. Seek And Release (5:46)
9. Prometheist (9:00)
10. Deep Five (10:32)
foobar2000 1.3.14 / Замер динамического диапазона (DR) 1.1.1
Дата отчёта: 2017-01-14 21:52:58

--------------------------------------------------------------------------------
Анализ: The Mercury Tree / Permutations
--------------------------------------------------------------------------------

DR Пики RMS Продолжительность трека
--------------------------------------------------------------------------------
DR6 -0.10 дБ -7.83 дБ 6:59 01-Symptoms
DR7 -0.10 дБ -8.48 дБ 4:56 02-Exhume The Worst
DR6 -0.10 дБ -8.86 дБ 10:43 03-Permutations
DR7 -0.10 дБ -9.63 дБ 4:08 04-Ether/Ore
DR6 -0.10 дБ -8.38 дБ 4:32 05-Placeholder
DR5 -0.10 дБ -7.09 дБ 5:07 06-Unintelligible
DR6 -0.10 дБ -8.01 дБ 4:43 07-Sympathesizer
DR5 -0.10 дБ -8.05 дБ 5:47 08-Seek And Release
DR4 -0.10 дБ -6.84 дБ 9:00 09-Prometheist
DR5 -0.10 дБ -8.13 дБ 10:32 10-Deep Five
--------------------------------------------------------------------------------

Количество треков: 10
Реальные значения DR: DR6

Частота: 44100 Гц
Каналов: 2
Разрядность: 16
Битрейт: 978 кбит/с
Кодек: FLAC
================================================================================
YouTube
Время раздачи: По мере возможности (до появления первых 3-5 скачавших)
[NNMClub.to]_The Mercury Tree - Permutations.torrent
 Торрент:   Зарегистрирован
 
Примагнититься
Free Leech
Зарегистрируйтесь и скачайте торрент!
19,6 KB
 Зарегистрирован:   14 Янв 2017 20:07:33
 Размер:   464 MB  (
 Рейтинг:    (Голосов: 3)
 Поблагодарили:   21
 Проверка:   Оформление проверено модератором 14 Янв 2017 20:26:26
Как cкачать  ·  Как раздать  ·  Правильно оформить  ·  Поднять ратио!  
Показать сообщения:   
Начать новую тему   Ответить на тему    Торрент-трекер NNM-Club -> Rock, Alternative, Punk, Metal -> Rock (Lossless) Часовой пояс: GMT + 3
Страница 1 из 1