Интеллигентный торрент-трекер
canvas not supported
Нас вместе: 4 343 736

Aeon Of Horus - Existence (2014) [FLAC|Lossless|image + .cue] <Progressive, Technical Death Metal>


 
 
RSS
Начать новую тему   Ответить на тему    Торрент-трекер NNM-Club -> Rock, Alternative, Punk, Metal -> Metal (Lossless)
Автор Сообщение
Svetojar ®
RG Music
 
Стаж: 4 мес. 15 дней
Сообщений: 648
Ratio: 195,902
Поблагодарили: 26369
100%
Aeon Of Horus - Existence (2014)
Год: 2014
Жанр: Progressive/Technical Death Metal
Издание: Self-released - AOH04
Продолжительность: 00:47:36

Кодек: FLAC
Битрейт: Lossless
Тип рипа: image + .cue

Треклист:
1. Refraction 04:29
2. Radiate 04:06
3. Symbiosis 05:56
4. Exude 01:19
5. Release 04:29
6. Emanate/Parallax 03:48
7. Dissipate 05:39
8. Thesis 03:01
9. Antithesis 05:09
10. Resolve 09:40
foobar2000 1.3.14 / Замер динамического диапазона (DR) 1.1.1
Дата отчёта: 2017-01-14 22:09:23

--------------------------------------------------------------------------------
Анализ: Aeon Of Horus / Existence
--------------------------------------------------------------------------------

DR Пики RMS Продолжительность трека
--------------------------------------------------------------------------------
DR6 -0.16 дБ -7.78 дБ 4:29 01-Refraction
DR6 -0.16 дБ -7.49 дБ 4:06 02-Radiate
DR6 -0.16 дБ -7.73 дБ 5:56 03-Symbiosis
DR8 -0.16 дБ -12.50 дБ 1:19 04-Exude
DR6 -0.16 дБ -7.53 дБ 4:29 05-Release
DR7 -0.16 дБ -9.27 дБ 3:48 06-Emanate-Parallax
DR6 -0.16 дБ -7.50 дБ 5:39 07-Dissipate
DR7 0.00 дБ -8.98 дБ 3:01 08-Thesis
DR6 0.00 дБ -8.24 дБ 5:10 09-Antithesis
DR7 -0.16 дБ -9.93 дБ 9:41 10-Resolve
--------------------------------------------------------------------------------

Количество треков: 10
Реальные значения DR: DR7

Частота: 44100 Гц
Каналов: 2
Разрядность: 16
Битрейт: 951 кбит/с
Кодек: FLAC
================================================================================
YouTube
Время раздачи: По мере возможности (до появления первых 3-5 скачавших)


Поглощение/вытеснение
Только с согласия релизера

Bigbeer
[NNMClub.to]_2014 - Existence.torrent
 Торрент:   Зарегистрирован
 
Примагнититься
Free Leech
Зарегистрируйтесь и скачайте торрент!
16,3 KB
 Зарегистрирован:   14 Янв 2017 20:22:41
 Размер:   379 MB  (
 Рейтинг:    (Голосов: 6)
 Поблагодарили:   30
 Проверка:   Оформление проверено модератором 14 Янв 2017 20:32:25
Как cкачать  ·  Как раздать  ·  Правильно оформить  ·  Поднять ратио!  
Загрузка...
Показать сообщения:   
Начать новую тему   Ответить на тему    Торрент-трекер NNM-Club -> Rock, Alternative, Punk, Metal -> Metal (Lossless) Часовой пояс: GMT + 3
Страница 1 из 1

День смеха и юмора отмечается 1 апреля. В этот день принято шутить и разыгрывать друзей, коллег по работе, домашних, словом всех, с кем Вам предстоит увидеться в этот праздник – первое апреля. Первоапрельские розыгрыши, приколы на 1 апреля, первоапрельские шутки должны быть веселыми и безобидными. Приколы на 1 апреля, как правило, удаются в том случае, если человек забыл какой сегодня месяц и день, словом, забыл про 1 апреля – день смеха, шуток, день дурака.

Желаем Вам много улыбок и хорошего настроения в этот день!
С Уважением, администрация NNM-Club :)