Интеллигентный торрент-трекер
canvas not supported
Нас вместе: 4 251 802

Lancer - Mastery (2017) Limited Edition [FLAC|Lossless|image + .cue] <Power, Speed Metal>


 
 
RSS
Начать новую тему   Ответить на тему    Торрент-трекер NNM-Club -> Rock, Alternative, Punk, Metal -> Metal (Lossless)
Автор Сообщение
Svetojar ®
RG Музыки
 
Стаж: 2 мес. 7 дней
Сообщений: 366
Ratio: 144,363
Поблагодарили: 14317
100%
Откуда: Тюмень
Lancer - Mastery (2017) Limited Edition
Год: 2017
Жанр: Power, Speed Metal
Издание: Nuclear Blast Records - 27361 38480
Продолжительность: 00:56:09

Кодек: FLAC
Битрейт: Lossless
Тип рипа: image + .cue

Треклист:
01. Dead Raising Towers
02. Future Millennia
03. Mastery
04. Victims of the Nile
05. Iscariot
06. Follow Azrael
07. Freedom Eaters
08. World Unknown
09. Widowmaker
10. Envy of the Gods
11. The Wolf and the Kraken (Bonus Track)
foobar2000 1.3.14 / Замер динамического диапазона (DR) 1.1.1
Дата отчёта: 2017-01-14 21:55:39

--------------------------------------------------------------------------------
Анализ: Lancer / Mastery (Limited Edition)
--------------------------------------------------------------------------------

DR Пики RMS Продолжительность трека
--------------------------------------------------------------------------------
DR7 -1.09 дБ -8.48 дБ 3:37 01-Dead Raising Towers
DR7 -1.09 дБ -8.99 дБ 3:36 02-Future Millennia
DR6 -1.09 дБ -8.28 дБ 4:50 03-Mastery
DR7 -1.09 дБ -10.98 дБ 7:36 04-Victims Of The Nile
DR6 -1.09 дБ -8.54 дБ 5:20 05-Iscariot
DR8 -1.09 дБ -10.37 дБ 6:28 06-Follow Azrael
DR6 -1.08 дБ -8.68 дБ 4:46 07-Freedom Eaters
DR8 -1.09 дБ -12.78 дБ 3:54 08-World Unknown
DR7 -1.09 дБ -8.91 дБ 4:33 09-Widowmaker
DR8 -1.09 дБ -10.61 дБ 7:36 10-Envy Of The Gods
DR7 -1.09 дБ -9.43 дБ 3:55 11-The Wolf And The Kraken (Bonus Track)
--------------------------------------------------------------------------------

Количество треков: 11
Реальные значения DR: DR7

Частота: 44100 Гц
Каналов: 2
Разрядность: 16
Битрейт: 992 кбит/с
Кодек: FLAC
================================================================================
YouTube
Время раздачи: По мере возможности (до появления первых 3-5 скачавших)
[NNMClub.to]_Lancer 2017 - Mastery (Limited Edition).torrent
 Торрент:   Зарегистрирован
 
Примагнититься
Free Leech
Зарегистрируйтесь и скачайте торрент!
19,9 KB
 Зарегистрирован:   17 Янв 2017 21:25:23
 Размер:   459 MB  (
 Рейтинг:    (Голосов: 7)
 Поблагодарили:   35
 Проверка:   Оформление проверено модератором 17 Янв 2017 21:26:58
Как cкачать  ·  Как раздать  ·  Правильно оформить  ·  Поднять ратио!  

_________________
Я человек ленивый, поэтому все делаю быстро и качественно. Чтобы быстрее освободиться и не переделывать.


Последний раз редактировалось: Svetojar (17 Янв 2017 21:18:00), всего редактировалось 1 раз
Показать сообщения:   
Начать новую тему   Ответить на тему    Торрент-трекер NNM-Club -> Rock, Alternative, Punk, Metal -> Metal (Lossless) Часовой пояс: GMT + 3
Страница 1 из 1