Интеллигентный торрент-трекер
canvas not supported
Нас вместе: 4 340 645

Simon Kinny-Lewis - Behind the Blue Mask (2013) [FLAC|Lossless|WEB-DL|tracks + .cue] <Blues / Blues-Rock>


 
 
RSS
Начать новую тему   Ответить на тему    Торрент-трекер NNM-Club -> Jazz, Blues, Soul -> Blues, Soul (Lossless)
Автор Сообщение
Svetojar ®
RG Music
 
Стаж: 4 мес. 10 дней
Сообщений: 628
Ratio: 217,562
Поблагодарили: 25591
100%
Simon Kinny-Lewis - Behind the Blue Mask (2013) WEB
Год: 2013
Жанр: Blues / Blues-Rock
Издание: Antida Studio's
Источник: ссылка
Продолжительность: 00:45:05

Кодек: FLAC
Битрейт: Lossless|WEB-DL
Тип рипа: tracks + .cue

Треклист:
01 Alone 04:08
02 Blues In My Heart 05:04
03 My Only Love 04:34
04 Whispers 03:58
05 Cold Heart 04:52
06 Kite Song 03:57
07 Why We Fall 04:17
08 Free Falling 05:09
09 Fading 03:52
10 Where Are You 05:15
foobar2000 1.3.14 / Замер динамического диапазона (DR) 1.1.1
Дата отчёта: 2017-01-15 13:15:51

--------------------------------------------------------------------------------
Анализ: Simon Kinny-Lewis / Behind the Blue Mask
--------------------------------------------------------------------------------

DR Пики RMS Продолжительность трека
--------------------------------------------------------------------------------
DR6 -0.50 дБ -8.19 дБ 4:08 01-Alone
DR7 -0.40 дБ -9.08 дБ 5:04 02-Blues In My Heart
DR7 -0.33 дБ -8.47 дБ 4:34 03-My Only Love
DR6 -0.50 дБ -7.83 дБ 3:58 04-Whispers
DR6 -0.38 дБ -7.98 дБ 4:52 05-Cold Heart
DR6 -0.41 дБ -8.61 дБ 3:57 06-Kite Song
DR7 -0.39 дБ -8.15 дБ 4:17 07-Why We Fall
DR6 -0.50 дБ -7.48 дБ 5:09 08-Free Falling
DR6 -0.50 дБ -7.42 дБ 3:52 09-Fading
DR6 -0.42 дБ -7.92 дБ 5:15 10-Where Are You
--------------------------------------------------------------------------------

Количество треков: 10
Реальные значения DR: DR6

Частота: 44100 Гц
Каналов: 2
Разрядность: 16
Битрейт: 811 кбит/с
Кодек: FLAC
================================================================================
YouTube
Время раздачи: По мере возможности (до появления первых 3-5 скачавших)
[NNMClub.to]_Simon Kinny-Lewis - 2013 -Behind the Blue Mask.torrent
 Торрент:   Зарегистрирован
 
Примагнититься
Free Leech
Зарегистрируйтесь и скачайте торрент!
12,3 KB
 Зарегистрирован:   15 Янв 2017 11:35:13
 Размер:   276 MB  (
 Рейтинг:    (Голосов: 5)
 Поблагодарили:   56
 Проверка:   Оформление проверено модератором 15 Янв 2017 14:02:02
Как cкачать  ·  Как раздать  ·  Правильно оформить  ·  Поднять ратио!  
Загрузка...
avrora7
RG Music
 
Стаж: 2 года 4 мес.
Сообщений: 3983
Ratio: 74,505
Поблагодарили: 47538
100%
cod4.gif
А.. душевно.. :да: спасибо.

_________________
Улыбайтесь, господа. Улыбайтесь! (Мюнхга́узен).
Показать сообщения:   
Начать новую тему   Ответить на тему    Торрент-трекер NNM-Club -> Jazz, Blues, Soul -> Blues, Soul (Lossless) Часовой пояс: GMT + 3
Страница 1 из 1

День смеха и юмора отмечается 1 апреля. В этот день принято шутить и разыгрывать друзей, коллег по работе, домашних, словом всех, с кем Вам предстоит увидеться в этот праздник – первое апреля. Первоапрельские розыгрыши, приколы на 1 апреля, первоапрельские шутки должны быть веселыми и безобидными. Приколы на 1 апреля, как правило, удаются в том случае, если человек забыл какой сегодня месяц и день, словом, забыл про 1 апреля – день смеха, шуток, день дурака.

Желаем Вам много улыбок и хорошего настроения в этот день!
С Уважением, администрация NNM-Club :)