Интеллигентный торрент-трекер
canvas not supported
Нас вместе: 4 339 999

SAOR - Guardians (2016) [FLAC|Lossless|image + .cue] <Atmospheric Folk, Black Metal>


 
 
RSS
Начать новую тему   Ответить на тему    Торрент-трекер NNM-Club -> Rock, Alternative, Punk, Metal -> Metal (Lossless)
Автор Сообщение
Svetojar ®
RG Music
 
Стаж: 6 мес. 11 дней
Сообщений: 690
Ratio: 202,111
Поблагодарили: 29149
100%
SAOR - Guardians (2016)
Год: 2016
Жанр: Atmospheric Folk, Black Metal
Издание: Northern Silence Productions - NSP 145
Продолжительность: 00:55:56

Кодек: FLAC
Битрейт: Lossless
Тип рипа: image + .cue

Треклист:
1. Guardians - 11:31
2. The Declaration - 10:31
3. Autumn Rain - 11:09
4. Hearth - 11:27
5. Tears of a Nation - 11:18
foobar2000 1.3.14 / Замер динамического диапазона (DR) 1.1.1
Дата отчёта: 2017-01-15 13:18:37

--------------------------------------------------------------------------------
Анализ: Saor / Guardians
--------------------------------------------------------------------------------

DR Пики RMS Продолжительность трека
--------------------------------------------------------------------------------
DR6 -0.53 дБ -7.98 дБ 11:33 01-Guardians
DR6 -0.53 дБ -8.49 дБ 10:32 02-The Declaration
DR6 -0.52 дБ -8.50 дБ 11:09 03-Autumn Rain
DR6 -0.53 дБ -8.04 дБ 11:28 04-Hearth
DR6 -0.53 дБ -8.93 дБ 11:19 05-Tears of a Nation
--------------------------------------------------------------------------------

Количество треков: 5
Реальные значения DR: DR6

Частота: 44100 Гц
Каналов: 2
Разрядность: 16
Битрейт: 949 кбит/с
Кодек: FLAC
================================================================================
YouTube
Время раздачи: По мере возможности (до появления первых 3-5 скачавших)


Поглощение/вытеснение
Только с согласия релизера

Bigbeer
[NNMClub.to]_2016 - Guardians.torrent
 Торрент:   Зарегистрирован
 
Примагнититься
Free Leech
Зарегистрируйтесь и скачайте торрент!
19,8 KB
 Зарегистрирован:   15 Янв 2017 11:43:41
 Размер:   468 MB  (
 Рейтинг:    (Голосов: 6)
 Поблагодарили:   41
 Проверка:   Оформление проверено модератором 15 Янв 2017 17:44:28
Как cкачать  ·  Как раздать  ·  Правильно оформить  ·  Поднять ратио!  
Показать сообщения:   
Начать новую тему   Ответить на тему    Торрент-трекер NNM-Club -> Rock, Alternative, Punk, Metal -> Metal (Lossless) Часовой пояс: GMT + 3
Страница 1 из 1