Интеллигентный торрент-трекер
canvas not supported
Нас вместе: 4 346 503

Arizmenda - Despairs Depths Descended (2016) [FLAC|Lossless|tracks + .cue] <Black Metal>


 
 
RSS
Начать новую тему   Ответить на тему    Торрент-трекер NNM-Club -> Rock, Alternative, Punk, Metal -> Metal (Lossless)
Автор Сообщение
Svetojar ®
RG Music
 
Стаж: 6 мес. 9 дней
Сообщений: 690
Ratio: 202,111
Поблагодарили: 29131
100%
Arizmenda - Despairs Depths Descended (2016)
Год: 2016
Жанр: Black Metal
Издание: Crepúsculo Negro
Продолжительность: 00:45:24

Кодек: FLAC
Битрейт: Lossless
Тип рипа: tracks + .cue

Треклист:
1. Christening Unborn Deformities
2. Taste of Purity
3. Sculpting Sins of a Universal Tongue
4. Birth
5. Neves
6. Libations in Limbo

foobar2000 1.3.14 / Замер динамического диапазона (DR) 1.1.1
Дата отчёта: 2017-01-15 13:46:38

--------------------------------------------------------------------------------
Анализ: Arizmenda / Despairs Depths Descended
--------------------------------------------------------------------------------

DR Пики RMS Продолжительность трека
--------------------------------------------------------------------------------
DR7 -0.20 дБ -9.28 дБ 7:12 01-Christening Unborn Deformities
DR8 -0.20 дБ -9.86 дБ 9:10 02-Taste of Purity
DR7 -0.20 дБ -8.51 дБ 8:36 03-Sculpting Sins of a Universal Tongue
DR8 -0.20 дБ -8.89 дБ 6:41 04-Birth
DR7 -0.20 дБ -8.38 дБ 6:36 05-Neves
DR9 -0.20 дБ -10.05 дБ 7:09 06-Libations in Limbo
--------------------------------------------------------------------------------

Количество треков: 6
Реальные значения DR: DR8

Частота: 44100 Гц
Каналов: 2
Разрядность: 16
Битрейт: 958 кбит/с
Кодек: FLAC
================================================================================
YouTube
Время раздачи: По мере возможности (до появления первых 3-5 скачавших)
[NNMClub.to]_Arizmenda - 2016 - Despairs Depths Descended.torrent
 Торрент:   Зарегистрирован
 
Примагнититься
Free Leech
Зарегистрируйтесь и скачайте торрент!
13,8 KB
 Зарегистрирован:   15 Янв 2017 11:55:40
 Размер:   315 MB  (
 Рейтинг:    (Голосов: 4)
 Поблагодарили:   22
 Проверка:   Оформление проверено модератором 15 Янв 2017 17:48:57
Как cкачать  ·  Как раздать  ·  Правильно оформить  ·  Поднять ратио!  
Загрузка...
Показать сообщения:   
Начать новую тему   Ответить на тему    Торрент-трекер NNM-Club -> Rock, Alternative, Punk, Metal -> Metal (Lossless) Часовой пояс: GMT + 3
Страница 1 из 1