Интеллигентный торрент-трекер
canvas not supported
Нас вместе: 4 265 775

Resistor - Underground (2017) [FLAC|Lossless|WEB-DL|tracks + .cue] <Crossover Prog>


 
 
RSS
Начать новую тему   Ответить на тему    Торрент-трекер NNM-Club -> Rock, Alternative, Punk, Metal -> Rock (Lossless)
Автор Сообщение
Svetojar ®
RG Музыки
 

Online
Стаж: 2 мес. 14 дней
Сообщений: 406
Ratio: 160,639
Поблагодарили: 16081
100%
Откуда: Тюмень
Resistor - Underground (2017) WEB
Год: 2017
Жанр: Crossover Prog
Источник: ссылка
Продолжительность: 01:17:31

Кодек: FLAC
Битрейт: Lossless
Тип рипа: tracks + .cue

Треклист:
01. Arrival (7:45)
02. Cathedral (4:02)
03. Wire (3:30)
04. Killers and Activists (4:12)
05. Discovery (7:01)
06. Running into Walls (6:04)
07. Atonement (5:35)
08. Transcendence (6:03)
09. Blackout (9:07)
10. Halls of Home (24:12)
foobar2000 1.3.14 / Замер динамического диапазона (DR) 1.1.1
Дата отчёта: 2017-01-15 18:43:42

--------------------------------------------------------------------------------
Анализ: Resistor / Underground
--------------------------------------------------------------------------------

DR Пики RMS Продолжительность трека
--------------------------------------------------------------------------------
DR9 -0.44 дБ -12.24 дБ 7:45 01-Arrival
DR9 -0.44 дБ -11.46 дБ 4:02 02-Cathedral
DR9 -0.44 дБ -10.85 дБ 3:30 03-Wire
DR8 -0.44 дБ -9.78 дБ 4:12 04-Killers And Activists
DR9 -0.44 дБ -12.35 дБ 7:01 05-Discovery
DR8 -0.44 дБ -10.56 дБ 6:04 06-Running Into Walls
DR10 -0.44 дБ -13.60 дБ 5:35 07-Atonement
DR10 -0.44 дБ -12.54 дБ 6:03 08-Transcendence
DR7 -0.44 дБ -9.68 дБ 9:07 09-Blackout
DR8 -0.44 дБ -10.87 дБ 24:12 10-Halls Of Home
--------------------------------------------------------------------------------

Количество треков: 10
Реальные значения DR: DR9

Частота: 44100 Гц
Каналов: 2
Разрядность: 16
Битрейт: 917 кбит/с
Кодек: FLAC
================================================================================
YouTube
Время раздачи: По мере возможности (до появления первых 3-5 скачавших)
[NNMClub.to]_Resistor - 2017 - Underground.torrent
 Торрент:   Зарегистрирован
 
Примагнититься
Free Leech
Зарегистрируйтесь и скачайте торрент!
21,2 KB
 Зарегистрирован:   15 Янв 2017 16:58:26
 Размер:   501 MB  (
 Рейтинг:    (Голосов: 6)
 Поблагодарили:   28
 Проверка:   Оформление проверено модератором 15 Янв 2017 17:35:16
Как cкачать  ·  Как раздать  ·  Правильно оформить  ·  Поднять ратио!  
Показать сообщения:   
Начать новую тему   Ответить на тему    Торрент-трекер NNM-Club -> Rock, Alternative, Punk, Metal -> Rock (Lossless) Часовой пояс: GMT + 3
Страница 1 из 1