Интеллигентный торрент-трекер
canvas not supported
Нас вместе: 4 345 328

Arovane - Discography 29 Releases (1998-2017) [FLAC|Lossless|tracks+.cue, tracks] <IDM, Downtempo, Ambient, Experimental, Dub Techno>


 
 
RSS
Начать новую тему   Ответить на тему    Торрент-трекер NNM-Club -> Electronic -> IDM (Lossless)
Автор Сообщение
vilator ®
Модератор Музыки
RG Music
 
Стаж: 8 лет 2 мес.
Сообщений: 5873
Ratio: 138,754
Поблагодарили: 116733
100%
Откуда: Minsk
pirates.png
Arovane Discography

Arovane - Уве Цан (Uwe Zahn) родился в Германии в 65-м, вырос в городе Хамельн и начал создавать музыку в подвале родительского дома в начале 80-х, используя микрофоны, кассетную деку и дешёвый клавишник Casio. К 1985 году будущий музыкант уже успел обменять часть своего скромного оборудования на аналоговый, а затем и на цифровой синтезатор с процессором эффектов, и воплотить с друзьями свои первые эксперименты. В 1988 он переезжает в Ганновер и там начинает вплотную работать с проигрывателями виниловых пластинок и кларнетом. В 1989 музыкант снова поменял место жительства, на этот раз он переехал в Мюнхен. Там он попал в состав музыкального коллектива Six And More, из названия которого следует, что свои произведения они записывали не меньше чем вшестером. Состав Six And More был неопределённым, а его участники сторонниками живой, электронной импровизации и выступали в Гамбурге, Мюнхене, Берлине, Франкфурте и Майнце. Коллектив выпустил несколько компакт-дисков на студии Archegon. В 1991 Цан, накопив за годы своего творчества жёсткий диск, полный музыки в стиле драм-н-бейс, передовую студию и любовь ко всему, что звучит по-электронному, переехал в Берлин, где и живёт с тех пор в старом здании в районе Пренцлауер Берг. С 1993 музыкант начал экспериментировать в жанре брейкбит и в 1995 получил внимание со стороны берлинской радиостанции Kiss FM, а специально для Radio Massive Цан написал несколько своих композиций. В 1997 музыкант связал свою деятельность со студией DIN и в 1998 выпустил на ней свой первый мини-альбом I.O. С 1999 композитор, начиная с мини-альбома Occer / Silicad, издаёт свою музыку на тогда только что возникшей студии City Centre Offices. Альбомы Tides и Lilies стали классикой её каталога.
Жанр: IDM, Downtempo, Ambient, Experimental • Страна: Germany • Год издания: 1998-2017 • Тип издания: CD, Web, Vinyl
Аудиокодек: FLAC (*.flac) | Тип рипа: tracks+.cue, tracks • Продолжительность: 19:41:13 • Источник: What, PTH • Наличие сканов: Да
Треклист:
Год выпуска: 2000
Продолжительность: 01:04:23
Треклист:

01. Nonlin.r (01:31)
02. Tascel_7 (05:42)
03. Thaem Nue (07:29)
04. Ambelio (05:50)
05. Scapen Te (06:16)
06. Norvum (07:44)
07. Revart Amx (05:02)
08. Failed (05:15)
09. Amine (05:28)
10. R/Elet (06:41)
11. Atol Scrap (07:25)

Exact Audio Copy V0.99 prebeta 4 from 23. January 2008

EAC extraction logfile from 7. May 2009, 0:34

Arovane / Atol Scrap

Used drive : MATSHITADVD-RAM UJ-846S Adapter: 0 ID: 0

Read mode : Secure
Utilize accurate stream : Yes
Defeat audio cache : Yes
Make use of C2 pointers : No

Read offset correction : 102
Overread into Lead-In and Lead-Out : No
Fill up missing offset samples with silence : Yes
Delete leading and trailing silent blocks : No
Null samples used in CRC calculations : Yes
Used interface : Native Win32 interface for Win NT & 2000
Gap handling : Appended to previous track

Used output format : User Defined Encoder
Selected bitrate : 768 kBit/s
Quality : High
Add ID3 tag : No
Command line compressor : C:\Programme\Multimedia\Audio\Exact Audio Copy\FLAC\FLAC.EXE
Additional command line options : -8 -V -T "ARTIST=%a" -T "TITLE=%t" -T "ALBUM=%g" -T "DATE=%y" -T "TRACKNUMBER=%n" -T "GENRE=%m" -T "COMMENT=EAC FLAC -8" %s

TOC of the extracted CD

Track | Start | Length | Start sector | End sector
---------------------------------------------------------
1 | 0:00.00 | 1:31.34 | 0 | 6858
2 | 1:31.34 | 5:42.09 | 6859 | 32517
3 | 7:13.43 | 7:29.24 | 32518 | 66216
4 | 14:42.67 | 5:49.67 | 66217 | 92458
5 | 20:32.59 | 6:16.13 | 92459 | 120671
6 | 26:48.72 | 7:43.66 | 120672 | 155462
7 | 34:32.63 | 5:01.49 | 155463 | 178086
8 | 39:34.37 | 5:14.72 | 178087 | 201708
9 | 44:49.34 | 5:28.08 | 201709 | 226316
10 | 50:17.42 | 6:40.74 | 226317 | 256390
11 | 56:58.41 | 7:24.55 | 256391 | 289745

Track 1

Filename C:\ABLAGE\Media\Music\Arovane\Arovane - 2000 - Atol Scrap [FLAC]\01 Nonlin.R.wav

Pre-gap length 0:00:02.00

Peak level 98.3 %
Track quality 100.0 %
Test CRC BBC84CDC
Copy CRC BBC84CDC
Accurately ripped (confidence 9) [C1F5BA38]
Copy OK

Track 2

Filename C:\ABLAGE\Media\Music\Arovane\Arovane - 2000 - Atol Scrap [FLAC]\02 Tascel_7.wav

Peak level 97.9 %
Track quality 100.0 %
Test CRC 7A5A5F58
Copy CRC 7A5A5F58
Accurately ripped (confidence 9) [A9E795FE]
Copy OK

Track 3

Filename C:\ABLAGE\Media\Music\Arovane\Arovane - 2000 - Atol Scrap [FLAC]\03 Thaem Nue.wav

Peak level 100.0 %
Track quality 100.0 %
Test CRC 150F8180
Copy CRC 150F8180
Accurately ripped (confidence 9) [78EE7567]
Copy OK

Track 4

Filename C:\ABLAGE\Media\Music\Arovane\Arovane - 2000 - Atol Scrap [FLAC]\04 Ambelio.wav

Peak level 98.5 %
Track quality 100.0 %
Test CRC 32E745FE
Copy CRC 32E745FE
Accurately ripped (confidence 9) [2643DC0B]
Copy OK

Track 5

Filename C:\ABLAGE\Media\Music\Arovane\Arovane - 2000 - Atol Scrap [FLAC]\05 Scapen Te.wav

Peak level 91.3 %
Track quality 100.0 %
Test CRC D5A602FC
Copy CRC D5A602FC
Accurately ripped (confidence 9) [A51E36D3]
Copy OK

Track 6

Filename C:\ABLAGE\Media\Music\Arovane\Arovane - 2000 - Atol Scrap [FLAC]\06 Norvum.wav

Peak level 98.1 %
Track quality 99.9 %
Test CRC B1C96C9F
Copy CRC B1C96C9F
Accurately ripped (confidence 9) [2E6BC5D7]
Copy OK

Track 7

Filename C:\ABLAGE\Media\Music\Arovane\Arovane - 2000 - Atol Scrap [FLAC]\07 Revart Amx.wav

Peak level 97.9 %
Track quality 100.0 %
Test CRC F0B731C8
Copy CRC F0B731C8
Accurately ripped (confidence 9) [01F43415]
Copy OK

Track 8

Filename C:\ABLAGE\Media\Music\Arovane\Arovane - 2000 - Atol Scrap [FLAC]\08 Failed.wav

Peak level 100.0 %
Track quality 100.0 %
Test CRC 3828F237
Copy CRC 3828F237
Accurately ripped (confidence 9) [8CF55603]
Copy OK

Track 9

Filename C:\ABLAGE\Media\Music\Arovane\Arovane - 2000 - Atol Scrap [FLAC]\09 Amine.wav

Peak level 100.0 %
Track quality 99.9 %
Test CRC 28E6F06F
Copy CRC 28E6F06F
Accurately ripped (confidence 9) [C2F67017]
Copy OK

Track 10

Filename C:\ABLAGE\Media\Music\Arovane\Arovane - 2000 - Atol Scrap [FLAC]\10 R,Elet.wav

Peak level 100.0 %
Track quality 100.0 %
Test CRC 4EA0F5AC
Copy CRC 4EA0F5AC
Accurately ripped (confidence 9) [41D3DAAF]
Copy OK

Track 11

Filename C:\ABLAGE\Media\Music\Arovane\Arovane - 2000 - Atol Scrap [FLAC]\11 Atol Scrap.wav

Peak level 99.5 %
Track quality 100.0 %
Test CRC DE6A07BA
Copy CRC DE6A07BA
Accurately ripped (confidence 9) [A4E24360]
Copy OK

All tracks accurately ripped

No errors occurred

End of status report


REM GENRE Electronic
REM DATE 2000
REM DISCID 870F170B
REM COMMENT "ExactAudioCopy v0.99pb4"
PERFORMER "Arovane"
TITLE "Atol Scrap"
FILE "01 - Nonlin.R.wav" WAVE
TRACK 01 AUDIO
TITLE "Nonlin.R"
PERFORMER "Arovane"
INDEX 01 00:00:00
FILE "02 - Tascel_7.wav" WAVE
TRACK 02 AUDIO
TITLE "Tascel_7"
PERFORMER "Arovane"
INDEX 01 00:00:00
FILE "03 - Thaem Nue.wav" WAVE
TRACK 03 AUDIO
TITLE "Thaem Nue"
PERFORMER "Arovane"
INDEX 01 00:00:00
FILE "04 - Ambelio.wav" WAVE
TRACK 04 AUDIO
TITLE "Ambelio"
PERFORMER "Arovane"
INDEX 01 00:00:00
FILE "05 - Scapen Te.wav" WAVE
TRACK 05 AUDIO
TITLE "Scapen Te"
PERFORMER "Arovane"
INDEX 01 00:00:00
FILE "06 - Norvum.wav" WAVE
TRACK 06 AUDIO
TITLE "Norvum"
PERFORMER "Arovane"
INDEX 01 00:00:00
FILE "07 - Revart Amx.wav" WAVE
TRACK 07 AUDIO
TITLE "Revart Amx"
PERFORMER "Arovane"
INDEX 01 00:00:00
FILE "08 - Failed.wav" WAVE
TRACK 08 AUDIO
TITLE "Failed"
PERFORMER "Arovane"
INDEX 01 00:00:00
FILE "09 - Amine.wav" WAVE
TRACK 09 AUDIO
TITLE "Amine"
PERFORMER "Arovane"
INDEX 01 00:00:00
FILE "10 - R-Elet.wav" WAVE
TRACK 10 AUDIO
TITLE "R/Elet"
PERFORMER "Arovane"
INDEX 01 00:00:00
FILE "11 - Atol Scrap.wav" WAVE
TRACK 11 AUDIO
TITLE "Atol Scrap"
PERFORMER "Arovane"
INDEX 01 00:00:00

Год выпуска: 2000
Продолжительность: 00:39:56
Треклист:

01. Theme (03:41)
02. Tides (05:33)
03. Eleventh! (04:46)
04. Tomorrow Morning (01:51)
05. Seaside (03:36)
06. A Secret (04:39)
07. The Storm (07:23)
08. Deauville (05:43)
09. Epilogue (02:44)

EAC extraction logfile from 21. December 2007, 12:04 for CD
Arovane / Tides

Used drive : HL-DT-STCD-RW GCE-8400B Adapter: 1 ID: 0
Read mode : Secure with NO C2, accurate stream, disable cache
Read offset correction : 12
Overread into Lead-In and Lead-Out : No

Used output format : C:\Program Files\Exact Audio Copy\flac.exe (User Defined Encoder)
128 kBit/s
Additional command line options : -8 -A tukey(0.25) -A gauss(0.1875) -b 4096 -V -T "artist=%a" -T "title=%t" -T "album=%g" -T "date=%y" -T "tracknumber=%n" -T "genre=%m" %s --sector-align

Other options :
Fill up missing offset samples with silence : Yes
Delete leading and trailing silent blocks : No
Installed external ASPI interface

Track 1
Filename D:\Oink\FLAC\Arovane - Tides [2000, City Centre Offices]\01. Theme.wav

Pre-gap length 0:00:02.13

Peak level 100.0 %
Track quality 100.0 %
Test CRC 645CD656
Copy CRC 645CD656
Copy OK

Track 2
Filename D:\Oink\FLAC\Arovane - Tides [2000, City Centre Offices]\02. Tides.wav

Peak level 94.2 %
Track quality 100.0 %
Test CRC EA197AE3
Copy CRC EA197AE3
Copy OK

Track 3
Filename D:\Oink\FLAC\Arovane - Tides [2000, City Centre Offices]\03. Eleventh!.wav

Peak level 100.0 %
Track quality 100.0 %
Test CRC C8ABAB7A
Copy CRC C8ABAB7A
Copy OK

Track 4
Filename D:\Oink\FLAC\Arovane - Tides [2000, City Centre Offices]\04. Tomorrow Morning.wav

Peak level 93.9 %
Track quality 100.0 %
Test CRC 437B3001
Copy CRC 437B3001
Copy OK

Track 5
Filename D:\Oink\FLAC\Arovane - Tides [2000, City Centre Offices]\05. Seaside.wav

Peak level 89.8 %
Track quality 100.0 %
Test CRC 080EADC4
Copy CRC 080EADC4
Copy OK

Track 6
Filename D:\Oink\FLAC\Arovane - Tides [2000, City Centre Offices]\06. A Secret.wav

Peak level 98.7 %
Track quality 100.0 %
Test CRC 72CA8615
Copy CRC 72CA8615
Copy OK

Track 7
Filename D:\Oink\FLAC\Arovane - Tides [2000, City Centre Offices]\07. The Storm.wav

Peak level 98.2 %
Track quality 100.0 %
Test CRC 9B82A8B3
Copy CRC 9B82A8B3
Copy OK

Track 8
Filename D:\Oink\FLAC\Arovane - Tides [2000, City Centre Offices]\08. Deauville.wav

Peak level 95.3 %
Track quality 100.0 %
Test CRC D1841FB1
Copy CRC D1841FB1
Copy OK

Track 9
Filename D:\Oink\FLAC\Arovane - Tides [2000, City Centre Offices]\09. Epilogue.wav

Peak level 100.0 %
Track quality 100.0 %
Test CRC 6E8AA592
Copy CRC 6E8AA592
Copy OK

No errors occured

End of status report


REM GENRE Electronic
REM DATE 2000
REM DISCID 70095B09
REM COMMENT "ExactAudioCopy v0.95b3"
PERFORMER "Arovane"
TITLE "Tides"
FILE "01 - Theme.wav" WAVE
TRACK 01 AUDIO
TITLE "Theme"
PERFORMER "Arovane"
FLAGS DCP
PREGAP 00:00:10
INDEX 01 00:00:00
FILE "02 - Tides.wav" WAVE
TRACK 02 AUDIO
TITLE "Tides"
PERFORMER "Arovane"
FLAGS DCP
INDEX 01 00:00:00
FILE "03 - Eleventh!.wav" WAVE
TRACK 03 AUDIO
TITLE "Eleventh!"
PERFORMER "Arovane"
FLAGS DCP
INDEX 01 00:00:00
FILE "04 - Tomorrow Morning.wav" WAVE
TRACK 04 AUDIO
TITLE "Tomorrow Morning"
PERFORMER "Arovane"
FLAGS DCP
INDEX 01 00:00:00
FILE "05 - Seaside.wav" WAVE
TRACK 05 AUDIO
TITLE "Seaside"
PERFORMER "Arovane"
FLAGS DCP
INDEX 01 00:00:00
FILE "06 - A Secret.wav" WAVE
TRACK 06 AUDIO
TITLE "A Secret"
PERFORMER "Arovane"
FLAGS DCP
INDEX 01 00:00:00
FILE "07 - The Storm.wav" WAVE
TRACK 07 AUDIO
TITLE "The Storm"
PERFORMER "Arovane"
FLAGS DCP
INDEX 01 00:00:00
FILE "08 - Deauville.wav" WAVE
TRACK 08 AUDIO
TITLE "Deauville"
PERFORMER "Arovane"
FLAGS DCP
INDEX 01 00:00:00
FILE "09 - Epilogue.wav" WAVE
TRACK 09 AUDIO
TITLE "Epilogue"
PERFORMER "Arovane"
FLAGS DCP
INDEX 01 00:00:00

Год выпуска: 2001
Продолжительность: 00:46:15
Треклист:

01. Valid Rand (01:21)
02. AER (Valid) (05:49)
03. Valid Fard (07:34)
04. (Fard) ENT:R (05:18)
05. Neyem (06:43)
06. Suffer (08:34)
07. Decay (08:41)
08. Blacksoil (02:15)

Exact Audio Copy V0.99 prebeta 5 from 4. May 2009

EAC extraction logfile from 6. May 2010, 18:10

AROVANE_PHONEM / AER (VALID)

Used drive : Memorex DVD+-RAM 525G v1 Adapter: 1 ID: 0

Read mode : Secure
Utilize accurate stream : Yes
Defeat audio cache : Yes
Make use of C2 pointers : No

Read offset correction : 102
Overread into Lead-In and Lead-Out : No
Fill up missing offset samples with silence : Yes
Delete leading and trailing silent blocks : No
Null samples used in CRC calculations : Yes
Used interface : Native Win32 interface for Win NT & 2000
Gap handling : Appended to previous track

Used output format : User Defined Encoder
Selected bitrate : 160 kBit/s
Quality : High
Add ID3 tag : No
Command line compressor : C:\Program Files\FLAC\flac.exe
Additional command line options : -8 -V -T "ARTIST=%a" -T "TITLE=%t" -T "ALBUM=%g" -T "DATE=%y" -T "TRACKNUMBER=%n" -T "GENRE=%m" -T "COMMENT=Ripped By stinkchild" %s

TOC of the extracted CD

Track | Start | Length | Start sector | End sector
---------------------------------------------------------
1 | 0:00.00 | 1:20.49 | 0 | 6048
2 | 1:20.49 | 5:48.56 | 6049 | 32204
3 | 7:09.30 | 7:33.38 | 32205 | 66217
4 | 14:42.68 | 5:17.46 | 66218 | 90038
5 | 20:00.39 | 6:43.36 | 90039 | 120299
6 | 26:44.00 | 8:34.28 | 120300 | 158877
7 | 35:18.28 | 8:41.20 | 158878 | 197972
8 | 43:59.48 | 2:14.69 | 197973 | 208091

Track 1

Filename C:\Documents and Settings\Owner\Desktop\BARN\[[[]]]\Arovane_Phonem [2001] AER (Valid) [VFORM008CD]\01 AROVANE_PHONEM - VALID RAND.wav

Pre-gap length 0:00:02.00

Peak level 97.5 %
Track quality 99.8 %
Test CRC 0E0EEC18
Copy CRC 0E0EEC18
Accurately ripped (confidence 6) [19E8E4EF]
Copy OK

Track 2

Filename C:\Documents and Settings\Owner\Desktop\BARN\[[[]]]\Arovane_Phonem [2001] AER (Valid) [VFORM008CD]\02 AROVANE_PHONEM - AER (VALID).wav

Peak level 100.0 %
Track quality 99.9 %
Test CRC 8A7D3223
Copy CRC 8A7D3223
Accurately ripped (confidence 6) [01877EF3]
Copy OK

Track 3

Filename C:\Documents and Settings\Owner\Desktop\BARN\[[[]]]\Arovane_Phonem [2001] AER (Valid) [VFORM008CD]\03 AROVANE_PHONEM - VALID FARD.wav

Pre-gap length 0:00:02.50

Peak level 100.0 %
Track quality 100.0 %
Test CRC 53EC69CE
Copy CRC 53EC69CE
Accurately ripped (confidence 6) [F3B97FC0]
Copy OK

Track 4

Filename C:\Documents and Settings\Owner\Desktop\BARN\[[[]]]\Arovane_Phonem [2001] AER (Valid) [VFORM008CD]\04 AROVANE_PHONEM - (FARD) ENT-R.wav

Pre-gap length 0:00:01.62

Peak level 99.7 %
Track quality 100.0 %
Test CRC CB60795F
Copy CRC CB60795F
Accurately ripped (confidence 6) [24AC10FB]
Copy OK

Track 5

Filename C:\Documents and Settings\Owner\Desktop\BARN\[[[]]]\Arovane_Phonem [2001] AER (Valid) [VFORM008CD]\05 AROVANE_PHONEM - NEYEM.wav

Pre-gap length 0:00:01.45

Peak level 99.7 %
Track quality 99.9 %
Test CRC CB4E5CDC
Copy CRC CB4E5CDC
Accurately ripped (confidence 6) [9D18A40A]
Copy OK

Track 6

Filename C:\Documents and Settings\Owner\Desktop\BARN\[[[]]]\Arovane_Phonem [2001] AER (Valid) [VFORM008CD]\06 AROVANE_PHONEM - SUFFER.wav

Pre-gap length 0:00:01.14

Peak level 100.0 %
Track quality 99.9 %
Test CRC A7AED5E1
Copy CRC A7AED5E1
Accurately ripped (confidence 6) [A9FFD6CE]
Copy OK

Track 7

Filename C:\Documents and Settings\Owner\Desktop\BARN\[[[]]]\Arovane_Phonem [2001] AER (Valid) [VFORM008CD]\07 AROVANE_PHONEM - DECAY.wav

Pre-gap length 0:00:02.46

Peak level 100.0 %
Track quality 100.0 %
Test CRC 898036E3
Copy CRC 898036E3
Accurately ripped (confidence 5) [42F8F1A2]
Copy OK

Track 8

Filename C:\Documents and Settings\Owner\Desktop\BARN\[[[]]]\Arovane_Phonem [2001] AER (Valid) [VFORM008CD]\08 AROVANE_PHONEM - BLACKSOIL.wav

Peak level 99.2 %
Track quality 100.0 %
Test CRC 24595F16
Copy CRC 24595F16
Accurately ripped (confidence 6) [B5290E8D]
Copy OK

All tracks accurately ripped

No errors occurred

End of status report


REM GENRE Electronic
REM DATE 2001
REM DISCID 4C0AD608
REM COMMENT "ExactAudioCopy v0.99pb5"
PERFORMER "AROVANE_PHONEM"
TITLE "AER (VALID)"
FILE "01 AROVANE_PHONEM - VALID RAND.wav" WAVE
TRACK 01 AUDIO
TITLE "VALID RAND"
PERFORMER "AROVANE_PHONEM"
INDEX 01 00:00:00
FILE "02 AROVANE_PHONEM - AER (VALID).wav" WAVE
TRACK 02 AUDIO
TITLE "AER (VALID)"
PERFORMER "AROVANE_PHONEM"
INDEX 01 00:00:00
TRACK 03 AUDIO
TITLE "VALID FARD"
PERFORMER "AROVANE_PHONEM"
INDEX 00 05:46:18
FILE "03 AROVANE_PHONEM - VALID FARD.wav" WAVE
INDEX 01 00:00:00
TRACK 04 AUDIO
TITLE "(FARD) ENT:R"
PERFORMER "AROVANE_PHONEM"
INDEX 00 07:31:66
FILE "04 AROVANE_PHONEM - (FARD) ENT-R.wav" WAVE
INDEX 01 00:00:00
TRACK 05 AUDIO
TITLE "NEYEM"
PERFORMER "AROVANE_PHONEM"
INDEX 00 05:16:12
FILE "05 AROVANE_PHONEM - NEYEM.wav" WAVE
INDEX 01 00:00:00
TRACK 06 AUDIO
TITLE "SUFFER"
PERFORMER "AROVANE_PHONEM"
INDEX 00 06:42:25
FILE "06 AROVANE_PHONEM - SUFFER.wav" WAVE
INDEX 01 00:00:00
TRACK 07 AUDIO
TITLE "DECAY"
PERFORMER "AROVANE_PHONEM"
INDEX 00 08:31:68
FILE "07 AROVANE_PHONEM - DECAY.wav" WAVE
INDEX 01 00:00:00
FILE "08 AROVANE_PHONEM - BLACKSOIL.wav" WAVE
TRACK 08 AUDIO
TITLE "BLACKSOIL"
PERFORMER "AROVANE_PHONEM"
INDEX 01 00:00:00

Год выпуска: 2004
Продолжительность: 00:36:36
Треклист:

01. Ten Hours (03:01)
02. Windy Wish Trees (03:20)
03. Passage To Nagoya (02:07)
04. Cry Osaka Cry (05:09)
05. Pink Lilies (04:01)
06. Lilies (05:27)
07. Tokyo Ghost Stories (05:07)
08. Instant Gods Out Of The Box (04:35)
09. Good Bye Forever (03:49)

Exact Audio Copy V1.0 beta 3 from 29. August 2011

EAC extraction logfile from 6. October 2012, 14:18

Arovane / Lilies

Used drive : TSSTcorpCDDVDW TS-L633L Adapter: 2 ID: 0

Read mode : Secure
Utilize accurate stream : Yes
Defeat audio cache : Yes
Make use of C2 pointers : No

Read offset correction : 6
Overread into Lead-In and Lead-Out : No
Fill up missing offset samples with silence : Yes
Delete leading and trailing silent blocks : No
Null samples used in CRC calculations : Yes
Used interface : Native Win32 interface for Win NT & 2000
Gap handling : Appended to previous track

Used output format : User Defined Encoder
Selected bitrate : 1024 kBit/s
Quality : High
Add ID3 tag : No
Command line compressor : C:\Program Files (x86)\Flac\flac.exe
Additional command line options : -8 -V -T "ARTIST=%artist%" -T "TITLE=%title%" -T "ALBUM=%albumtitle%" -T "DATE=%year%" -T "TRACKNUMBER=%tracknr%" -T "GENRE=%genre%" -T "PERFORMER=%albuminterpret%" -T "COMPOSER=%composer%" %haslyrics%--tag-from-file=LYRICS="%lyricsfile%"%haslyrics% -T "ALBUMARTIST=%albumartist%" -T "DISCNUMBER=%cdnumber%" -T "TOTALDISCS=%totalcds%" -T "TOTALTRACKS=%numtracks%" -T "COMMENT=%comment%" %source% -o %dest%

TOC of the extracted CD

Track | Start | Length | Start sector | End sector
---------------------------------------------------------
1 | 0:00.00 | 3:01.09 | 0 | 13583
2 | 3:01.09 | 3:19.70 | 13584 | 28578
3 | 6:21.04 | 2:07.10 | 28579 | 38113
4 | 8:28.14 | 5:08.53 | 38114 | 61266
5 | 13:36.67 | 4:00.61 | 61267 | 79327
6 | 17:37.53 | 5:27.12 | 79328 | 103864
7 | 23:04.65 | 5:07.02 | 103865 | 126891
8 | 28:11.67 | 4:35.31 | 126892 | 147547
9 | 32:47.23 | 3:48.64 | 147548 | 164711

Track 1

Filename E:\MP3\EAC\Arovane - Lilies (FLAC)\01 - Ten Hours.wav

Pre-gap length 0:00:02.00

Peak level 98.5 %
Extraction speed 2.0 X
Track quality 100.0 %
Test CRC 6428D6EC
Copy CRC 6428D6EC
Accurately ripped (confidence 2) [51D80599] (AR v2)
Copy OK

Track 2

Filename E:\MP3\EAC\Arovane - Lilies (FLAC)\02 - Windy Wish Trees.wav

Peak level 98.6 %
Extraction speed 2.3 X
Track quality 100.0 %
Test CRC 37DF2568
Copy CRC 37DF2568
Accurately ripped (confidence 2) [85AED348] (AR v2)
Copy OK

Track 3

Filename E:\MP3\EAC\Arovane - Lilies (FLAC)\03 - Passage To Nagoya.wav

Peak level 98.5 %
Extraction speed 1.7 X
Track quality 99.9 %
Test CRC D464B737
Copy CRC D464B737
Accurately ripped (confidence 2) [84D29A90] (AR v2)
Copy OK

Track 4

Filename E:\MP3\EAC\Arovane - Lilies (FLAC)\04 - Cry Osaka Cry.wav

Peak level 98.8 %
Extraction speed 2.7 X
Track quality 100.0 %
Test CRC D090F0DC
Copy CRC D090F0DC
Accurately ripped (confidence 2) [1FD83EE9] (AR v2)
Copy OK

Track 5

Filename E:\MP3\EAC\Arovane - Lilies (FLAC)\05 - Pink Lilies.wav

Peak level 98.8 %
Extraction speed 2.9 X
Track quality 100.0 %
Test CRC F80841DA
Copy CRC F80841DA
Accurately ripped (confidence 2) [E9EF4CC7] (AR v2)
Copy OK

Track 6

Filename E:\MP3\EAC\Arovane - Lilies (FLAC)\06 - Lilies.wav

Peak level 98.5 %
Extraction speed 3.2 X
Track quality 100.0 %
Test CRC 1F738965
Copy CRC 1F738965
Accurately ripped (confidence 2) [51DBFB88] (AR v2)
Copy OK

Track 7

Filename E:\MP3\EAC\Arovane - Lilies (FLAC)\07 - Tokyo Ghost Stories.wav

Peak level 99.7 %
Extraction speed 3.4 X
Track quality 100.0 %
Test CRC E6E63663
Copy CRC E6E63663
Accurately ripped (confidence 2) [16E24246] (AR v2)
Copy OK

Track 8

Filename E:\MP3\EAC\Arovane - Lilies (FLAC)\08 - Instant Gods Out Of The Box.wav

Peak level 99.9 %
Extraction speed 3.5 X
Track quality 100.0 %
Test CRC E45FF9F0
Copy CRC E45FF9F0
Accurately ripped (confidence 2) [E6DA0955] (AR v2)
Copy OK

Track 9

Filename E:\MP3\EAC\Arovane - Lilies (FLAC)\09 - Good Bye Forever.wav

Peak level 100.0 %
Extraction speed 3.5 X
Track quality 100.0 %
Test CRC 84B57302
Copy CRC 84B57302
Accurately ripped (confidence 2) [7AF83DA7] (AR v2)
Copy OK

All tracks accurately ripped

No errors occurred

End of status report

---- CUETools DB Plugin V2.1.3

[CTDB TOCID: Ly6.3qmlzyK4JC62UBmMsErGNzw-] found, Submit result: Ly6.3qmlzyK4JC62UBmMsErGNzw- has been confirmed
[6f84064f] (25/25) Accurately ripped

==== Log checksum 4C207C2F9EB01A60FB660D957D802E637A9375E32B9E2E07002A18F530DD4D54 ====


REM GENRE Electronic
REM DATE 2004
REM DISCID 80089409
REM COMMENT "ExactAudioCopy v1.0b3"
PERFORMER "Arovane"
TITLE "Lilies"
FILE "01 - Ten Hours.wav" WAVE
TRACK 01 AUDIO
TITLE "Ten Hours"
PERFORMER "Arovane"
INDEX 01 00:00:00
FILE "02 - Windy Wish Trees.wav" WAVE
TRACK 02 AUDIO
TITLE "Windy Wish Trees"
PERFORMER "Arovane"
INDEX 01 00:00:00
FILE "03 - Passage To Nagoya.wav" WAVE
TRACK 03 AUDIO
TITLE "Passage To Nagoya"
PERFORMER "Arovane"
INDEX 01 00:00:00
FILE "04 - Cry Osaka Cry.wav" WAVE
TRACK 04 AUDIO
TITLE "Cry Osaka Cry"
PERFORMER "Arovane"
INDEX 01 00:00:00
FILE "05 - Pink Lilies.wav" WAVE
TRACK 05 AUDIO
TITLE "Pink Lilies"
PERFORMER "Arovane"
INDEX 01 00:00:00
FILE "06 - Lilies.wav" WAVE
TRACK 06 AUDIO
TITLE "Lilies"
PERFORMER "Arovane"
INDEX 01 00:00:00
FILE "07 - Tokyo Ghost Stories.wav" WAVE
TRACK 07 AUDIO
TITLE "Tokyo Ghost Stories"
PERFORMER "Arovane"
INDEX 01 00:00:00
FILE "08 - Instant Gods Out Of The Box.wav" WAVE
TRACK 08 AUDIO
TITLE "Instant Gods Out Of The Box"
PERFORMER "Arovane"
INDEX 01 00:00:00
FILE "09 - Good Bye Forever.wav" WAVE
TRACK 09 AUDIO
TITLE "Good Bye Forever"
PERFORMER "Arovane"
INDEX 01 00:00:00

Год выпуска: 2013
Продолжительность: 01:05:12
Треклист:

01. Audiofragment (02:30)
02. Scrai-N (03:17)
03. Ve Palor (07:43)
04. Scaabl (03:45)
05. C Ll Lt (06:42)
06. Cleiy (07:01)
07. Ccale Eqou (07:08)
08. Gniddt (05:00)
09. Leptr (04:56)
10. Deev (07:16)
11. Cae Nij (05:33)
12. Foldt (04:21)

Exact Audio Copy V1.3 from 2. September 2016

EAC extraction logfile from 31. December 2016, 3:57

Arovane / Ve Palor

Used drive : SlimtypeDVD A DA8A6SH Adapter: 1 ID: 0

Read mode : Secure
Utilize accurate stream : Yes
Defeat audio cache : Yes
Make use of C2 pointers : No

Read offset correction : 6
Overread into Lead-In and Lead-Out : No
Fill up missing offset samples with silence : Yes
Delete leading and trailing silent blocks : No
Null samples used in CRC calculations : Yes
Used interface : Native Win32 interface for Win NT & 2000
Gap handling : Appended to previous track

Used output format : User Defined Encoder
Selected bitrate : 1024 kBit/s
Quality : High
Add ID3 tag : No
Command line compressor : C:\Program Files (x86)\Exact Audio Copy\Flac\flac.exe
Additional command line options : -8 -e -p -V -T "ARTIST=%artist%" -T "TITLE=%title%" -T "ALBUM=%albumtitle%" -T "DATE=%year%" -T "TRACKNUMBER=%tracknr%" -T "GENRE=%genre%" -T "PERFORMER=%albuminterpret%" -T "COMPOSER=%composer%" %haslyrics%--tag-from-file=LYRICS="%lyricsfile%"%haslyrics% -T "ALBUMARTIST=%albumartist%" -T "DISCNUMBER=%cdnumber%" -T "TOTALDISCS=%totalcds%" -T "TOTALTRACKS=%numtracks%" -T "COMMENT=%comment%" %source% -o %dest%

TOC of the extracted CD

Track | Start | Length | Start sector | End sector
---------------------------------------------------------
1 | 0:00.00 | 2:30.00 | 0 | 11249
2 | 2:30.00 | 3:17.18 | 11250 | 26042
3 | 5:47.18 | 7:43.05 | 26043 | 60772
4 | 13:30.23 | 3:45.26 | 60773 | 77673
5 | 17:15.49 | 6:42.21 | 77674 | 107844
6 | 23:57.70 | 7:00.68 | 107845 | 139412
7 | 30:58.63 | 7:07.61 | 139413 | 171498
8 | 38:06.49 | 4:59.41 | 171499 | 193964
9 | 43:06.15 | 4:55.50 | 193965 | 216139
10 | 48:01.65 | 7:16.02 | 216140 | 248841
11 | 55:17.67 | 5:33.29 | 248842 | 273845
12 | 60:51.21 | 4:20.55 | 273846 | 293400

Track 1

Filename C:\Users\Lexo7\Desktop\Perfect Flacs\Arovane - Ve Palor (2013) (FLAC+LOG+CUE)\01 audiofragment.wav

Pre-gap length 0:00:02.00

Peak level 97.7 %
Extraction speed 1.1 X
Track quality 100.0 %
Test CRC 5B9A320A
Copy CRC 5B9A320A
Accurately ripped (confidence 5) [7373DD39] (AR v2)
Copy OK

Track 2

Filename C:\Users\Lexo7\Desktop\Perfect Flacs\Arovane - Ve Palor (2013) (FLAC+LOG+CUE)\02 scrai-n.wav

Peak level 97.7 %
Extraction speed 1.2 X
Track quality 100.0 %
Test CRC 19E5C2F6
Copy CRC 19E5C2F6
Accurately ripped (confidence 5) [8C490AE1] (AR v2)
Copy OK

Track 3

Filename C:\Users\Lexo7\Desktop\Perfect Flacs\Arovane - Ve Palor (2013) (FLAC+LOG+CUE)\03 ve palor.wav

Pre-gap length 0:00:01.65

Peak level 97.7 %
Extraction speed 1.5 X
Track quality 100.0 %
Test CRC 958945A4
Copy CRC 958945A4
Accurately ripped (confidence 5) [E02F2B9C] (AR v2)
Copy OK

Track 4

Filename C:\Users\Lexo7\Desktop\Perfect Flacs\Arovane - Ve Palor (2013) (FLAC+LOG+CUE)\04 scaabl.wav

Pre-gap length 0:00:02.29

Peak level 97.7 %
Extraction speed 1.5 X
Track quality 100.0 %
Test CRC D74E6041
Copy CRC D74E6041
Accurately ripped (confidence 5) [AF03C585] (AR v2)
Copy OK

Track 5

Filename C:\Users\Lexo7\Desktop\Perfect Flacs\Arovane - Ve Palor (2013) (FLAC+LOG+CUE)\05 c II lt.wav

Peak level 97.7 %
Extraction speed 1.7 X
Track quality 100.0 %
Test CRC 3E38F5AD
Copy CRC 3E38F5AD
Accurately ripped (confidence 5) [95D03D02] (AR v2)
Copy OK

Track 6

Filename C:\Users\Lexo7\Desktop\Perfect Flacs\Arovane - Ve Palor (2013) (FLAC+LOG+CUE)\06 cleiy.wav

Pre-gap length 0:00:02.00

Peak level 97.7 %
Extraction speed 1.9 X
Track quality 100.0 %
Test CRC 17DF0623
Copy CRC 17DF0623
Accurately ripped (confidence 5) [12D3E0C6] (AR v2)
Copy OK

Track 7

Filename C:\Users\Lexo7\Desktop\Perfect Flacs\Arovane - Ve Palor (2013) (FLAC+LOG+CUE)\07 ccale eqou.wav

Pre-gap length 0:00:02.00

Peak level 97.7 %
Extraction speed 2.1 X
Track quality 100.0 %
Test CRC C41F06AF
Copy CRC C41F06AF
Accurately ripped (confidence 5) [80FFD6D8] (AR v2)
Copy OK

Track 8

Filename C:\Users\Lexo7\Desktop\Perfect Flacs\Arovane - Ve Palor (2013) (FLAC+LOG+CUE)\08 gniddt.wav

Pre-gap length 0:00:00.78

Peak level 97.7 %
Extraction speed 2.1 X
Track quality 100.0 %
Test CRC 6398A741
Copy CRC 6398A741
Accurately ripped (confidence 5) [9FAD1CAF] (AR v2)
Copy OK

Track 9

Filename C:\Users\Lexo7\Desktop\Perfect Flacs\Arovane - Ve Palor (2013) (FLAC+LOG+CUE)\09 leptr.wav

Peak level 97.7 %
Extraction speed 2.2 X
Track quality 100.0 %
Test CRC C4BDC0E9
Copy CRC C4BDC0E9
Accurately ripped (confidence 5) [DBF8C040] (AR v2)
Copy OK

Track 10

Filename C:\Users\Lexo7\Desktop\Perfect Flacs\Arovane - Ve Palor (2013) (FLAC+LOG+CUE)\10 deev.wav

Pre-gap length 0:00:00.06

Peak level 97.7 %
Extraction speed 2.4 X
Track quality 100.0 %
Test CRC 574AD2A5
Copy CRC 574AD2A5
Accurately ripped (confidence 5) [97911491] (AR v2)
Copy OK

Track 11

Filename C:\Users\Lexo7\Desktop\Perfect Flacs\Arovane - Ve Palor (2013) (FLAC+LOG+CUE)\11 cae nij.wav

Pre-gap length 0:00:02.00

Peak level 97.7 %
Extraction speed 2.4 X
Track quality 100.0 %
Test CRC 83EE7EAD
Copy CRC 83EE7EAD
Accurately ripped (confidence 5) [A454394D] (AR v2)
Copy OK

Track 12

Filename C:\Users\Lexo7\Desktop\Perfect Flacs\Arovane - Ve Palor (2013) (FLAC+LOG+CUE)\12 foldt.wav

Peak level 97.7 %
Extraction speed 2.4 X
Track quality 100.0 %
Test CRC E3A8E7A2
Copy CRC E3A8E7A2
Accurately ripped (confidence 5) [07A8D244] (AR v2)
Copy OK

All tracks accurately ripped

No errors occurred

End of status report

---- CUETools DB Plugin V2.1.6

[CTDB TOCID: hPOnzPXl6qkyNmYebwhaKS7tp_s-] found
Submit result: hPOnzPXl6qkyNmYebwhaKS7tp_s- has been confirmed
Track | CTDB Status
1 | (5/6) Accurately ripped
2 | (5/6) Accurately ripped
3 | (5/6) Accurately ripped
4 | (5/6) Accurately ripped
5 | (5/6) Accurately ripped
6 | (5/6) Accurately ripped
7 | (5/6) Accurately ripped
8 | (5/6) Accurately ripped
9 | (5/6) Accurately ripped
10 | (5/6) Accurately ripped
11 | (5/6) Accurately ripped
12 | (5/6) Accurately ripped

==== Log checksum E3E75979180577739BDC91538EA1BC72F9406BE68A6491E593D471D3B170AE52 ====


REM GENRE Electronic
REM DATE 2013
REM DISCID B10F480C
REM COMMENT "ExactAudioCopy v1.3"
PERFORMER "Arovane"
TITLE "Ve Palor"
REM COMPOSER ""
FILE "01 audiofragment.wav" WAVE
TRACK 01 AUDIO
TITLE "audiofragment"
PERFORMER "Arovane"
REM COMPOSER ""
ISRC USHMD1321401
INDEX 01 00:00:00
FILE "02 scrai-n.wav" WAVE
TRACK 02 AUDIO
TITLE "scrai-n"
PERFORMER "Arovane"
REM COMPOSER ""
ISRC USHMD1321402
INDEX 01 00:00:00
TRACK 03 AUDIO
TITLE "ve palor"
PERFORMER "Arovane"
REM COMPOSER ""
ISRC USHMD1321403
INDEX 00 03:15:44
FILE "03 ve palor.wav" WAVE
INDEX 01 00:00:00
TRACK 04 AUDIO
TITLE "scaabl"
PERFORMER "Arovane"
REM COMPOSER ""
ISRC USHMD1321404
INDEX 00 07:40:58
FILE "04 scaabl.wav" WAVE
INDEX 01 00:00:00
FILE "05 c II lt.wav" WAVE
TRACK 05 AUDIO
TITLE "c II lt"
PERFORMER "Arovane"
REM COMPOSER ""
ISRC USHMD1321405
INDEX 01 00:00:00
TRACK 06 AUDIO
TITLE "cleiy"
PERFORMER "Arovane"
REM COMPOSER ""
ISRC USHMD1321406
INDEX 00 06:40:21
FILE "06 cleiy.wav" WAVE
INDEX 01 00:00:00
TRACK 07 AUDIO
TITLE "ccale eqou"
PERFORMER "Arovane"
REM COMPOSER ""
ISRC USHMD1321407
INDEX 00 06:58:68
FILE "07 ccale eqou.wav" WAVE
INDEX 01 00:00:00
TRACK 08 AUDIO
TITLE "gniddt"
PERFORMER "Arovane"
REM COMPOSER ""
ISRC USHMD1321408
INDEX 00 07:07:02
FILE "08 gniddt.wav" WAVE
INDEX 01 00:00:00
FILE "09 leptr.wav" WAVE
TRACK 09 AUDIO
TITLE "leptr"
PERFORMER "Arovane"
REM COMPOSER ""
ISRC USHMD1321409
INDEX 01 00:00:00
TRACK 10 AUDIO
TITLE "deev"
PERFORMER "Arovane"
REM COMPOSER ""
ISRC USHMD1321410
INDEX 00 04:55:45
FILE "10 deev.wav" WAVE
INDEX 01 00:00:00
TRACK 11 AUDIO
TITLE "cae nij"
PERFORMER "Arovane"
REM COMPOSER ""
ISRC USHMD1321411
INDEX 00 07:14:02
FILE "11 cae nij.wav" WAVE
INDEX 01 00:00:00
FILE "12 foldt.wav" WAVE
TRACK 12 AUDIO
TITLE "foldt"
PERFORMER "Arovane"
REM COMPOSER ""
ISRC USHMD1321412
INDEX 01 00:00:00

Год выпуска: 2013
Продолжительность: 01:22:57
Треклист:

01. Audiofragment (02:30)
02. Scrai-N (03:16)
03. Ve Palor (07:41)
04. Scaabl (03:45)
05. C Ll Lt (06:40)
06. Cleiy (06:59)
07. Ccale Eqou (07:07)
08. Gniddt (05:00)
09. Leptr (04:56)
10. Deev (07:14)
11. Cae Nij (05:35)
12. Foldt (04:25)
13. Gaed Ventr (06:55)
14. Ioqu (06:10)
15. Vendt (04:44)

-----------------------

DON'T MODIFY THIS FILE

-----------------------

PERFORMER: auCDtect Task Manager, ver. 1.5.1RC6 build 1.5.1.7
Copyright (c) 2008-2010 y-soft. All rights reserved
http://y-soft.org

ANALYZER: auCDtect: CD records authenticity detector, version 0.8.2
Copyright (c) 2004 Oleg Berngardt. All rights reserved.
Copyright (c) 2004 Alexander Djourik. All rights reserved.

FILE: 15. Vendt.flac
Size: 16622059 Hash: 5568D5C02D3BF15C78E268A53F77549B Accuracy: -m0
Conclusion: CDDA 76%
Signature: 03D70DFC131CB6285C77FCFDD79F1670371C5990
FILE: 14. Ioqu.flac
Size: 33301258 Hash: AFB476C37FFE7516FCFA4A4C45A93B40 Accuracy: -m0
Conclusion: CDDA 100%
Signature: 5B72DF3ED38BF1AE64113D493823A9BF4BDE550C
FILE: 13. Gaed Ventr.flac
Size: 46875152 Hash: 5354219C75C0B7EBB26054E54A4D4457 Accuracy: -m0
Conclusion: CDDA 100%
Signature: E933945078C85D050BE97F9BCFA2B4307FFFDD2D
FILE: 12. Foldt.flac
Size: 35375094 Hash: B5F0FFE799BA2802FD6B26819229C118 Accuracy: -m0
Conclusion: CDDA 100%
Signature: 79B22547D6547F3B6BC41C9EC342E9E11A2EB75F
FILE: 11. Cae Nij.flac
Size: 21465814 Hash: 162089632883FF374F245E0860472DF5 Accuracy: -m0
Conclusion: CDDA 100%
Signature: C747533441C50F7415FBE230FBD1880FFB591263
FILE: 10. Deev.flac
Size: 46760403 Hash: D9E6888CDFAC1F2990BEBADF844A4964 Accuracy: -m0
Conclusion: CDDA 100%
Signature: 9319FA6038F595C3A82B59B334C6E613B6AFD514
FILE: 09. Leptr.flac
Size: 30340522 Hash: AE06CD4B1DEC7FCC7100373A583A6924 Accuracy: -m0
Conclusion: CDDA 100%
Signature: 50D3035A445A5C4583B9ACA9646E652F7A8605C1
FILE: 08. Gniddt.flac
Size: 25593717 Hash: D02EB7610BB47D23A895392A33ECFDEE Accuracy: -m0
Conclusion: CDDA 100%
Signature: F383539E79D136189F9DB90FF47F55A1D55D084D
FILE: 07. Ccale Eqou.flac
Size: 22748240 Hash: 49C863A305DFAAF53618AD22A8E03EED Accuracy: -m0
Conclusion: CDDA 100%
Signature: 30DD9A875409F404F03C2DCBBBF903FA47F46846
FILE: 06. Cleiy.flac
Size: 26701924 Hash: 9A80BDE3F67EC7032F289E4E9D544FA4 Accuracy: -m0
Conclusion: CDDA 99%
Signature: 29C89D1842D0998A485428B72518E454513EC186
FILE: 05. C Ll Lt.flac
Size: 41750664 Hash: D14674BE0E4F8511A8776C449428E3E0 Accuracy: -m0
Conclusion: CDDA 100%
Signature: 3A15B71BB2118B705F77675D381B7E0DED6BBE8B
FILE: 04. Scaabl.flac
Size: 17657768 Hash: 81447C06CEB823D5833967142B44115B Accuracy: -m0
Conclusion: CDDA 43%
Signature: 697FF11F9F97AFF6E91A6589255292EEED767001
FILE: 03. Ve Palor.flac
Size: 29912942 Hash: 7DD6BAE7626071C1868F178FFD19FB11 Accuracy: -m0
Conclusion: CDDA 100%
Signature: 46E47D8E976D6273183291DC90E9A95E7BA8622E
FILE: 02. Scrai-N.flac
Size: 18294600 Hash: 709FF2F167141730BBECDCC20825D5D0 Accuracy: -m0
Conclusion: CDDA 100%
Signature: 2C3DAEABC8EE620B8D90D6B36EA559B0204D2EA0
FILE: 01. Audiofragment.flac
Size: 15978693 Hash: 142C43AD28914FBDA85928AFB587F290 Accuracy: -m0
Conclusion: CDDA 100%
Signature: 6C947D2E2259FEC537C0E207343C7A83BA794B8D

Год выпуска: 2015
Продолжительность: 01:05:24
Треклист:

01. Tevvel Structure I (14:08)
02. Tevvel Structure II (20:04)
03. Tevvel Structure III (17:15)
04. Dwell Structure I & II (13:57)

Exact Audio Copy V1.1 from 23. June 2015

EAC extraction logfile from 14. October 2015, 18:42

Arovane / Dwell - Tevvel - Structure

Used drive : ASUS SDRW-08D2S-U Adapter: 1 ID: 0

Read mode : Secure
Utilize accurate stream : Yes
Defeat audio cache : Yes
Make use of C2 pointers : No

Read offset correction : 6
Overread into Lead-In and Lead-Out : No
Fill up missing offset samples with silence : Yes
Delete leading and trailing silent blocks : No
Null samples used in CRC calculations : Yes
Used interface : Native Win32 interface for Win NT & 2000
Gap handling : Appended to previous track

Used output format : User Defined Encoder
Selected bitrate : 1024 kBit/s
Quality : High
Add ID3 tag : No
Command line compressor : C:\Program Files (x86)\Exact Audio Copy\Flac\flac.exe
Additional command line options : -8 -V -T "ARTIST=%artist%" -T "TITLE=%title%" -T "ALBUM=%albumtitle%" -T "DATE=%year%" -T "TRACKNUMBER=%tracknr%" -T "GENRE=%genre%" -T "PERFORMER=%albuminterpret%" -T "COMPOSER=%composer%" %haslyrics%--tag-from-file=LYRICS="%lyricsfile%"%haslyrics% -T "ALBUMARTIST=%albumartist%" -T "DISCNUMBER=%cdnumber%" -T "TOTALDISCS=%totalcds%" -T "TOTALTRACKS=%numtracks%" -T "COMMENT=%comment%" %source% -o %dest%

TOC of the extracted CD

Track | Start | Length | Start sector | End sector
---------------------------------------------------------
1 | 0:00.00 | 14:08.00 | 0 | 63599
2 | 14:08.00 | 20:04.29 | 63600 | 153928
3 | 34:12.29 | 17:14.39 | 153929 | 231517
4 | 51:26.68 | 13:57.23 | 231518 | 294315

Track 1

Filename H:\Arovane - Dwell_tevvel_structure (2015) [FLAC - CD]\01 - Tevvel Structure I.wav

Pre-gap length 0:00:02.00

Peak level 100.0 %
Extraction speed 1.4 X
Track quality 100.0 %
Test CRC 4AE64B9C
Copy CRC 4AE64B9C
Track not present in AccurateRip database
Copy OK

Track 2

Filename H:\Arovane - Dwell_tevvel_structure (2015) [FLAC - CD]\02 - Tevvel Structure II.wav

Peak level 32.8 %
Extraction speed 1.9 X
Track quality 100.0 %
Test CRC 46305652
Copy CRC 46305652
Track not present in AccurateRip database
Copy OK

Track 3

Filename H:\Arovane - Dwell_tevvel_structure (2015) [FLAC - CD]\03 - Tevvel Structure III.wav

Peak level 40.8 %
Extraction speed 2.2 X
Track quality 99.9 %
Test CRC 3BC74265
Copy CRC 3BC74265
Track not present in AccurateRip database
Copy OK

Track 4

Filename H:\Arovane - Dwell_tevvel_structure (2015) [FLAC - CD]\04 - Dwell Structure I_I.wav

Peak level 88.1 %
Extraction speed 2.4 X
Track quality 99.9 %
Test CRC 6431B1D8
Copy CRC 6431B1D8
Track not present in AccurateRip database
Copy OK

None of the tracks are present in the AccurateRip database

No errors occurred

End of status report

---- CUETools DB Plugin V2.1.6

[CTDB TOCID: mxQ9sQxajI8fZQhgfEnZJm_UuxQ-] found
Submit result: mxQ9sQxajI8fZQhgfEnZJm_UuxQ- has been confirmed
Track | CTDB Status
1 | (2/2) Accurately ripped
2 | (2/2) Accurately ripped
3 | (2/2) Accurately ripped
4 | (2/2) Accurately ripped

==== Log checksum DFD9EAEF07F4CA44D59DF53D0E1D12118EC5C06E34834957E24F15383D5227AC ====


REM GENRE Electronic
REM DATE 2015
REM DISCID 2D0F5404
REM COMMENT "ExactAudioCopy v1.1"
PERFORMER "Arovane"
TITLE "Dwell - Tevvel - Structure"
FILE "01 - Tevvel Structure I.wav" WAVE
TRACK 01 AUDIO
TITLE "Tevvel Structure I"
PERFORMER "Arovane"
INDEX 01 00:00:00
FILE "02 - Tevvel Structure II.wav" WAVE
TRACK 02 AUDIO
TITLE "Tevvel Structure II"
PERFORMER "Arovane"
INDEX 01 00:00:00
FILE "03 - Tevvel Structure III.wav" WAVE
TRACK 03 AUDIO
TITLE "Tevvel Structure III"
PERFORMER "Arovane"
INDEX 01 00:00:00
FILE "04 - Dwell Structure I_I.wav" WAVE
TRACK 04 AUDIO
TITLE "Dwell Structure I_I"
PERFORMER "Arovane"
INDEX 01 00:00:00

Год выпуска: 2015
Продолжительность: 01:12:13
Треклист:

01. Nostalghia I (17:36)
02. Quite Music (03:24)
03. Anbelb (04:27)
04. Time As Metaphor (12:53)
05. The Pit (08:31)
06. Nostalghia II (10:55)
07. Tolios (09:07)
08. Toocer (05:20)

-----------------------

DON'T MODIFY THIS FILE

-----------------------

PERFORMER: auCDtect Task Manager, ver. 1.5.1RC6 build 1.5.1.7
Copyright (c) 2008-2010 y-soft. All rights reserved
http://y-soft.org

ANALYZER: auCDtect: CD records authenticity detector, version 0.8.2
Copyright (c) 2004 Oleg Berngardt. All rights reserved.
Copyright (c) 2004 Alexander Djourik. All rights reserved.

FILE: 08. Toocer.flac
Size: 22440761 Hash: AC7528B1E28447EC9BA457163C870312 Accuracy: -m0
Conclusion: CDDA 100%
Signature: 4CA6A9EFADC6C42D8E688CB830BF4A3C64E73EEE
FILE: 07. Tolios.flac
Size: 35050980 Hash: BC5091414A2D48EF264C756B1E1E25F6 Accuracy: -m0
Conclusion: CDDA 94%
Signature: 73E3F8D47E87334B08C2A4F65FE155FDD32B301E
FILE: 06. Nostalghia II.flac
Size: 56457170 Hash: 6B889F2CCE3E034801C165BCBCDFEF2B Accuracy: -m0
Conclusion: CDDA 100%
Signature: EAE67B808B96A11DBFC3C27E354CC95E6AFA8E25
FILE: 05. The Pit.flac
Size: 31212053 Hash: CDB93ED73A7923AFB8CEF5A90C7A1290 Accuracy: -m0
Conclusion: CDDA 100%
Signature: 2D62657D00AB21CAC929F572E704C41A55D01B75
FILE: 04. Time As Metaphor.flac
Size: 61714099 Hash: 84E67A78303E27BA202FA190E8710421 Accuracy: -m0
Conclusion: CDDA 100%
Signature: B472FC6D54DC72449011600697DECF9C390AFE2D
FILE: 03. Anbelb.flac
Size: 23305549 Hash: FC3EF2E2F426EE83BA5628FDBF0C347D Accuracy: -m0
Conclusion: CDDA 100%
Signature: 8D190EC48180C74A280EBEAF65B226D2EE741ED1
FILE: 02. Quite Music.flac
Size: 21493524 Hash: 94A113306C7E99319DCC4D4F275EDBFD Accuracy: -m0
Conclusion: CDDA 100%
Signature: 230700FD94A482BE582B3342FE2174CF2F20BD86
FILE: 01. Nostalghia I.flac
Size: 89994165 Hash: E868AD0760BC9A069C3F747A99962000 Accuracy: -m0
Conclusion: CDDA 100%
Signature: 4107984BC92AF9CD682F4E9BDEEE0A4F90060AE2

Год выпуска: 2015
Продолжительность: 00:55:33
Треклист:

01. A Day, November 2013 (08:48)
02. Wunderland (03:41)
03. After Tomorrow (04:39)
04. Pendel (06:10)
05. Past Creates The Future (04:13)
06. Plennt Road (02:58)
07. Scale (07:14)
08. Maedra (03:10)
09. A Winter Day (04:00)
10. Relief (03:51)
11. Velvve (06:49)

-----------------------

DON'T MODIFY THIS FILE

-----------------------

PERFORMER: auCDtect Task Manager, ver. 1.6.0 RC1 build 1.6.0.1
Copyright (c) 2008-2010 y-soft. All rights reserved
http://y-soft.org

ANALYZER: auCDtect: CD records authenticity detector, version 0.8.2
Copyright (c) 2004 Oleg Berngardt. All rights reserved.
Copyright (c) 2004 Alexander Djourik. All rights reserved.

FILE: 11 - Velvve.flac
Size: 44957305 Hash: 9283E21A8355130AF451E13CC99A541A Accuracy: -m0
Conclusion: CDDA 100%
Signature: D73824112F6F4A42CBCFFF2C2AD84DA2F15BF42C
FILE: 10 - Relief.flac
Size: 20796915 Hash: 5AB585A5DE6EA88EF3DE6ED50EB6C10C Accuracy: -m0
Conclusion: CDDA 99%
Signature: A6B5EC1902868A619A48615A32EBFCBD029EA792
FILE: 09 - A Winter day.flac
Size: 31108505 Hash: DBF4EABB7FBCC706C367B0A812306C8D Accuracy: -m0
Conclusion: CDDA 43%
Signature: E33701C1877CBCCA996818839D95DF5E4E98FE12
FILE: 08 - Maedra.flac
Size: 19481312 Hash: 39F5DAD89DB886C35FB1AC9E1BFD2847 Accuracy: -m0
Conclusion: MPEG 91%
Signature: E597CE422FBDED98ECBED1174252A68CBB6BA972
FILE: 07 - Scale.flac
Size: 49237192 Hash: C32871EB539C742DAE2586CC33A9D057 Accuracy: -m0
Conclusion: CDDA 100%
Signature: 0D4DAC3698EFF3DE8EADFDD3A172FE7174261C52
FILE: 06 - Plennt Road.flac
Size: 21117155 Hash: 9ACCB1C30F1185F9261A1939B9D62B84 Accuracy: -m0
Conclusion: CDDA 100%
Signature: A4EF2970E3102B2AB9395B1444C1F79E398E6EFD
FILE: 05 - Past Creates The Future (Feat. Aaron Martin on Cello).flac
Size: 24545697 Hash: 8D528B08F3BF10E3357DDEDC1CF62700 Accuracy: -m0
Conclusion: CDDA 99%
Signature: 71C61A48DBC2337F4B6879F5BA61ABD6E30A8048
FILE: 04 - Pendel.flac
Size: 38737352 Hash: D6084A3052028ED77E21172EA97AD87F Accuracy: -m0
Conclusion: CDDA 100%
Signature: 26E397E075EC2246D8EB4C9E9C8314CEA731A106
FILE: 03 - After Tomorrow.flac
Size: 32125050 Hash: A7D2D97AAC2CA592FD079612C25513C9 Accuracy: -m0
Conclusion: CDDA 100%
Signature: 65FC8FDEB2C12CB31FC0B00935DBF319687E1B86
FILE: 02 - Wunderland.flac
Size: 28998282 Hash: 7BCD5CCD415B3139645B09B1102173E1 Accuracy: -m0
Conclusion: CDDA 100%
Signature: AA745952C5CA0F174B72E1C9B53A4137A965D3F4
FILE: 01 - A Day, November 2013.flac
Size: 47485787 Hash: 26238769741B7F032EE37C535FF94B95 Accuracy: -m0
Conclusion: CDDA 100%
Signature: 406EEE38DF9F56E0EADAAC960787580352EB7B80

Год выпуска: 2015
Продолжительность: 00:55:51
Треклист:

01. Lyid Skor 1 (02:17)
02. Lyid Skor 2 (05:01)
03. Lyid Skor 3 (01:02)
04. Lyid Skor 4 (03:38)
05. Lyid Skor 5 (04:45)
06. Lyid Skor 6 (07:57)
07. Lyid Skor 7 (02:19)
08. Lyid Skor 8 (05:35)
09. Lyid Skor 9 (04:15)
10. Lyid Skor 10 (04:11)
11. Lyid Skor 11 (01:45)
12. Lyid Skor 12 (02:01)
13. Lyid Skor 13 (01:02)
14. Lyid Skor 14 (03:17)
15. Lyid Skor 15 (02:46)
16. Lyid Skor 16 (04:00)

-----------------------

DON'T MODIFY THIS FILE

-----------------------

PERFORMER: auCDtect Task Manager, ver. 1.5.1RC6 build 1.5.1.7
Copyright (c) 2008-2010 y-soft. All rights reserved
http://y-soft.org

ANALYZER: auCDtect: CD records authenticity detector, version 0.8.2
Copyright (c) 2004 Oleg Berngardt. All rights reserved.
Copyright (c) 2004 Alexander Djourik. All rights reserved.

FILE: 16. Lyid Skor 16.flac
Size: 22190061 Hash: 4C9749025632FB743A4059C35FCA9B84 Accuracy: -m0
Conclusion: CDDA 100%
Signature: 6919C3CC9DD9932D78FEFB5CC5E409089F2B7C7D
FILE: 15. Lyid Skor 15.flac
Size: 16873085 Hash: 6768E4C98A46012FA5828B58DB17282B Accuracy: -m0
Conclusion: CDDA 87%
Signature: 2D18E01621F27DED45A13AF7E5DC7552793B0D2E
FILE: 14. Lyid Skor 14.flac
Size: 15060270 Hash: 121EB049C34DFDD19DA40C51BE999075 Accuracy: -m0
Conclusion: CDDA 100%
Signature: 95D6AABCECA5DC5CE90922C3A6523A5ABD299991
FILE: 13. Lyid Skor 13.flac
Size: 6380253 Hash: 3C0EA04FEC07DB8116CDC96A79599C14 Accuracy: -m0
Conclusion: CDDA 100%
Signature: CA0344CA5C4A48D4394B5A92EBE3B5D64DD398AF
FILE: 12. Lyid Skor 12.flac
Size: 10963448 Hash: 5CBE34A5B325B25FCBA8A13E690D76EF Accuracy: -m0
Conclusion: CDDA 100%
Signature: 418B915917B84B532956CC9F6BEAA52C53CE0E82
FILE: 11. Lyid Skor 11.flac
Size: 9497417 Hash: 671CD0BC2485D6156D97F5BF5D9DD7DE Accuracy: -m0
Conclusion: CDDA 62%
Signature: 1DF2323877FFD43466CAC871C1565CE5EAE50BDC
FILE: 10. Lyid Skor 10.flac
Size: 26246644 Hash: 3ACB035868DBAE94ACC84F988EEBF854 Accuracy: -m0
Conclusion: CDDA 100%
Signature: 1BDBA92FE42257D0BA8F3B58C777C5394FD79EE1
FILE: 09. Lyid Skor 9.flac
Size: 35294434 Hash: 9495301ECA6966BB546A8B8A31259E33 Accuracy: -m0
Conclusion: CDDA 100%
Signature: 99EAC9564E06CFDB18B3EC846FAE02EE06600753
FILE: 08. Lyid Skor 8.flac
Size: 23933643 Hash: A9459B5772E9861F93E41A8DB8100E4B Accuracy: -m0
Conclusion: MPEG 80%
Signature: 73F5B6979D223CA67DB5ACA741D40C9261D6E8A2
FILE: 07. Lyid Skor 7.flac
Size: 10582082 Hash: 91002274E2D90EB016A8235CB9FA5455 Accuracy: -m0
Conclusion: CDDA 99%
Signature: 3B7072350775C01B443E9491438EF6925B4C85D2
FILE: 06. Lyid Skor 6.flac
Size: 31174018 Hash: 28E0D224595CFEC9E1045E574277BF3A Accuracy: -m0
Conclusion: CDDA 100%
Signature: BFB36B2E974DAE1ED64F3B86FC6A251803B56B0A
FILE: 05. Lyid Skor 5.flac
Size: 29454517 Hash: C6437BCF13E107CB9D94D2AC459FC6F5 Accuracy: -m0
Conclusion: CDDA 99%
Signature: 87CF70A91B74DA6BA202EE695806786EFA0D3B14
FILE: 04. Lyid Skor 4.flac
Size: 17281907 Hash: 617C28FB8931E9A0C1DF827A95AECE99 Accuracy: -m0
Conclusion: CDDA 100%
Signature: B38F7FC346B14BC3428F44A4CA0226313100567F
FILE: 03. Lyid Skor 3.flac
Size: 5380915 Hash: 827AC393DB551B8BDBB183E9DF7572F8 Accuracy: -m0
Conclusion: CDDA 100%
Signature: 6E5DBA4DE0F5A8B6E2ED31F9707A17A2A5C00778
FILE: 02. Lyid Skor 2.flac
Size: 32592641 Hash: 62E0690A2AD81F2B2A3D8441F40DD420 Accuracy: -m0
Conclusion: CDDA 100%
Signature: 4E8C82DFE2BF7CF1F6D149025E1B851ECD914DCB
FILE: 01. Lyid Skor 1.flac
Size: 10855168 Hash: 7B5C3BC89FD0795CE8EB002BE53D9431 Accuracy: -m0
Conclusion: CDDA 99%
Signature: 84FDD03EF64534AFE5CB636AEBB74CCD4D408DFB

Год выпуска: 2015
Продолжительность: 00:42:02
Треклист:

01. rEsonance (04:36)
02. reSonance (04:06)
03. resOnance (04:32)
04. resoNance (08:08)
05. resonAnce (03:44)
06. resonaNce (02:40)
07. resonanCe (06:56)
08. resonancE (07:20)

-----------------------

DON'T MODIFY THIS FILE

-----------------------

PERFORMER: auCDtect Task Manager, ver. 1.5.1RC6 build 1.5.1.7
Copyright (c) 2008-2010 y-soft. All rights reserved
http://y-soft.org

ANALYZER: auCDtect: CD records authenticity detector, version 0.8.2
Copyright (c) 2004 Oleg Berngardt. All rights reserved.
Copyright (c) 2004 Alexander Djourik. All rights reserved.

FILE: 01. rEsonance.flac
Size: 23294297 Hash: BAC49CFECA03E43DCE3DC31C335BC897 Accuracy: -m0
Conclusion: MPEG 89%
Signature: 11E17D55064AF093750B083789AF4D6D2907ED4F
FILE: 08. resonancE.flac
Size: 38229167 Hash: E3A865CB0A74F60ECE56B8C3778834D7 Accuracy: -m0
Conclusion: CDDA 76%
Signature: 49671C776D2B036DB55C911D8245E6723EC69218
FILE: 07. resonanCe.flac
Size: 37619572 Hash: 20ADF2383C0AEA5CC0DB78C4E86F1FEC Accuracy: -m0
Conclusion: MPEG 90%
Signature: EC6F5D7BB585D574848C6991F8376D8A35401625
FILE: 06. resonaNce.flac
Size: 16875177 Hash: EB9E86BDF3CE8444BE4F8AEAFE5DB205 Accuracy: -m0
Conclusion: CDDA 85%
Signature: 9B64315311F73BD0182C782D2810CB2C5BBAEB89
FILE: 05. resonAnce.flac
Size: 24333341 Hash: 50A319FE516C03EB266400B455F016FB Accuracy: -m0
Conclusion: CDDA 99%
Signature: 8CA2FF73AC31A09DDE5CF915D427C7C35D02DF7A
FILE: 04. resoNance.flac
Size: 47849711 Hash: 8D4F2E9556988D456DCC68D10AD7F5BD Accuracy: -m0
Conclusion: CDDA 100%
Signature: 9DE9F76D3FBFEC5E4343ECF0B6AD6152A4971305
FILE: 03. resOnance.flac
Size: 27780600 Hash: D7DD33D72F64858DBFB479B308B10FB7 Accuracy: -m0
Conclusion: CDDA 99%
Signature: 4C23D9B5B20D02E0CCE7C24A8C1C23433F066D64
FILE: 02. reSonance.flac
Size: 24950040 Hash: 9500D67C3B4C8C7F15F0A9DA7493F4E7 Accuracy: -m0
Conclusion: CDDA 99%
Signature: 1944933E2AB47FA27572B68A192BF5CC199D0498

Год выпуска: 2016
Продолжительность: 00:53:00
Треклист:

01. After Tomorrow (AMX) (04:29)
02. Past Creates The Future (bvdub's Houses Hold The Past To Peace) (09:25)
03. Wunderland (Herr Irisarri Remix) (05:03)
04. Past Creates The Future (Porya Hatami Remix) (06:56)
05. Scale (Markus Guentner Remix) (08:00)
06. A Day, November 2013 (The Sight Below Remix) (19:07)

-----------------------

DON'T MODIFY THIS FILE

-----------------------

PERFORMER: auCDtect Task Manager, ver. 1.5.1RC6 build 1.5.1.7
Copyright (c) 2008-2010 y-soft. All rights reserved
http://y-soft.org

ANALYZER: auCDtect: CD records authenticity detector, version 0.8.2
Copyright (c) 2004 Oleg Berngardt. All rights reserved.
Copyright (c) 2004 Alexander Djourik. All rights reserved.

FILE: 06. A Day, November 2013 (The Sight Below Remix).flac
Size: 106064878 Hash: 1500466D058F7F2EEF3E77BB0D6D2CC4 Accuracy: -m0
Conclusion: CDDA 100%
Signature: 7C78E15FD4E1F824DB44E013EDF80A1FCD01678D
FILE: 05. Scale (Markus Guentner Remix).flac
Size: 46013962 Hash: 7EC037347838970E2BF19FC76305DF56 Accuracy: -m0
Conclusion: CDDA 100%
Signature: B0FE9E2BFEC83C1FCF1B499C13D9B7C56A6026E3
FILE: 04. Past Creates The Future (Porya Hatami Remix).flac
Size: 41718087 Hash: 8DE6E22C96171EE980BF0D1D0EE9DB5A Accuracy: -m0
Conclusion: CDDA 99%
Signature: 77A158713798F47D55F4DC0B6E711D91DEB27483
FILE: 03. Wunderland (Herr Irisarri Remix).flac
Size: 27431650 Hash: 2B7BF5049ACA148199A58489FB99EA26 Accuracy: -m0
Conclusion: CDDA 99%
Signature: 245BCEB6EB0B48B6B83C08420C217A98DAD6A65A
FILE: 02. Past Creates The Future (bvdub's Houses Hold The Past To Peace).flac
Size: 58348400 Hash: C337C05339AACE8119CD1BE9D9EFCFB4 Accuracy: -m0
Conclusion: CDDA 100%
Signature: 19595A4B2E9252CE57987D95B5128F887E4A7BC1
FILE: 01. After Tomorrow (AMX).flac
Size: 23941115 Hash: ED6317907A3669D18EE8233C672C0587 Accuracy: -m0
Conclusion: CDDA 100%
Signature: BCBA30B6335FAC19C70D69C69D90BDC84A6FFA54

Год выпуска: 2016
Продолжительность: 00:52:17
Треклист:

01. Vaun (04:08)
02. Uun (03:32)
03. Onva (03:16)
04. Noc (03:30)
05. Mii (04:24)
06. Kann (02:23)
07. Juee (02:58)
08. Iaan (02:42)
09. Emn (02:43)
10. Eer (02:27)
11. Ceill (03:36)
12. Abiee (00:59)
13. Phea (03:41)
14. Lith (07:23)
15. Feer (04:35)

-----------------------

DON'T MODIFY THIS FILE

-----------------------

PERFORMER: auCDtect Task Manager, ver. 1.5.1RC6 build 1.5.1.7
Copyright (c) 2008-2010 y-soft. All rights reserved
http://y-soft.org

ANALYZER: auCDtect: CD records authenticity detector, version 0.8.2
Copyright (c) 2004 Oleg Berngardt. All rights reserved.
Copyright (c) 2004 Alexander Djourik. All rights reserved.

FILE: 15. Feer.flac
Size: 19471154 Hash: E2B595ADDA5A184DECFAE2B1D4598355 Accuracy: -m0
Conclusion: CDDA 58%
Signature: 79508A7D796D8DD8EC639562340720A07981391A
FILE: 14. Lith.flac
Size: 45627204 Hash: 173713992CC205546C01C83929BCAB45 Accuracy: -m0
Conclusion: CDDA 100%
Signature: 8A519F06D40DCA22EFB42399F530953C701AC097
FILE: 13. Phea.flac
Size: 14593825 Hash: D3DB8C9AC9E19704C186A2C730259896 Accuracy: -m0
Conclusion: MPEG 92%
Signature: 8481060C15887BB44A8A8FA97055A3660C747733
FILE: 12. Abiee.flac
Size: 5138323 Hash: FCB3F1CEAEE6A521D1AE32A191FA85D6 Accuracy: -m0
Conclusion: CDDA 100%
Signature: B942943BFDC8BE69B1403B1AE9340B87107D7A96
FILE: 11. Ceill.flac
Size: 18181131 Hash: 9ADA8B0253B4701EC4EE2A59E60CF02D Accuracy: -m0
Conclusion: CDDA 100%
Signature: D0A3019F7537920E1EB517557C28CA7C5C29DFC0
FILE: 10. Eer.flac
Size: 15640744 Hash: 158749A4B8CA79F5894F91AF31D305B9 Accuracy: -m0
Conclusion: CDDA 100%
Signature: E4996B9A841AD988A5B41D9D053EFB632B127C38
FILE: 09. Emn.flac
Size: 14423910 Hash: BB214C898CE4F25A7BF129672BB9050A Accuracy: -m0
Conclusion: CDDA 100%
Signature: 8F6156FD2DAFFC55C18D499053F7DB62D0C0E33B
FILE: 08. Iaan.flac
Size: 17493348 Hash: 582E16872D2713A9D4346B7D75D87749 Accuracy: -m0
Conclusion: CDDA 100%
Signature: D048DD77001B2CC37FAD434C370EEA8C8F97E5BD
FILE: 07. Juee.flac
Size: 16041158 Hash: E48D22492D11D0AE9CACA91AFE35E7F3 Accuracy: -m0
Conclusion: CDDA 100%
Signature: 76C0FD1B91E6E81F738AA711EB40222E5410A666
FILE: 06. Kann.flac
Size: 12347506 Hash: 19685C9438D436DEBC6CA325988FB204 Accuracy: -m0
Conclusion: CDDA 100%
Signature: D5CFE293B824D778C4FABE304471EB179AEBC15C
FILE: 05. Mii.flac
Size: 22154896 Hash: 4DC25E3E0BB8C11BA4D0657CC873DF04 Accuracy: -m0
Conclusion: CDDA 100%
Signature: 5D90A36D93341860BDDEA7B9E9939749CF88A956
FILE: 04. Noc.flac
Size: 19300944 Hash: B01BB5E1517F826B1AF81467FA831E5C Accuracy: -m0
Conclusion: CDDA 100%
Signature: 87EA4957B0B8751C8EC28863D3D4BF28158F42DC
FILE: 03. Onva.flac
Size: 14382581 Hash: 251A19A2AF0FCDDE9F6C3EF2A7000C20 Accuracy: -m0
Conclusion: CDDA 99%
Signature: FC1A1F8BB9A7E8551B2E806E4283044AF7F2D54F
FILE: 02. Uun.flac
Size: 15080714 Hash: 898CE3234171F2BE250954EE9B5E7AF6 Accuracy: -m0
Conclusion: CDDA 99%
Signature: 3AC3F009262F88C2DBC1A174D51D5C317B2098C5
FILE: 01. Vaun.flac
Size: 22025857 Hash: 93EA0191AF06C956B166F77C2B9ED46B Accuracy: -m0
Conclusion: CDDA 100%
Signature: 993BA001E3827018C09CB5A8BCD7880BD0537F52

Год выпуска: 2016
Продолжительность: 00:51:47
Треклист:

01. Veerian (07:08)
02. Vooon (06:11)
03. Vhaundt (05:22)
04. Vhandaan (07:20)
05. Veeland (09:58)
06. Velbb (08:44)
07. V-Modal (07:04)

-----------------------

DON'T MODIFY THIS FILE

-----------------------

PERFORMER: auCDtect Task Manager, ver. 1.5.1RC6 build 1.5.1.7
Copyright (c) 2008-2010 y-soft. All rights reserved
http://y-soft.org

ANALYZER: auCDtect: CD records authenticity detector, version 0.8.2
Copyright (c) 2004 Oleg Berngardt. All rights reserved.
Copyright (c) 2004 Alexander Djourik. All rights reserved.

FILE: 07. V-Modal.flac
Size: 34444778 Hash: FE31CACE6C5BA4F64D36FE2D2CEBEA2F Accuracy: -m0
Conclusion: CDDA 54%
Signature: 03143F47C532FA4C492A1ADF64E0D84D0D278B23
FILE: 06. Velbb.flac
Size: 56744851 Hash: 0F83236BD6ED8BDAD7A21424FDDC9E18 Accuracy: -m0
Conclusion: CDDA 100%
Signature: 91459A106DD87CA2D620BF5E2ED11EB339BE9565
FILE: 05. Veeland.flac
Size: 50486927 Hash: FC6AB19760E6E6C6C50C38175D50D049 Accuracy: -m0
Conclusion: CDDA 100%
Signature: 6BCC74417CF493EB885A6B5614AEDB7886B29063
FILE: 04. Vhandaan.flac
Size: 29309283 Hash: 4729247C6E1AF92706F656DD73ABE0DF Accuracy: -m0
Conclusion: MPEG 93%
Signature: 7F2BF3F9725032A35CC6E1AFB6B00C5C90605936
FILE: 03. Vhaundt.flac
Size: 34019397 Hash: C4E088685CE4462A202610C883874F7E Accuracy: -m0
Conclusion: CDDA 99%
Signature: 5E2C558588CF2B5C50D00ACAF01CB140461D6C2A
FILE: 02. Vooon.flac
Size: 29443554 Hash: 2DF0E5BB49533D9B13E615CA3C6912F9 Accuracy: -m0
Conclusion: CDDA 100%
Signature: 4185703D0A9420251212C8E5103DCA66DCD4CF71
FILE: 01. Veerian.flac
Size: 41472559 Hash: 3874FC8796FCD28B0ADF820263CF3795 Accuracy: -m0
Conclusion: CDDA 99%
Signature: BCAB36474186B1455515D79A154B83A2F9DAE0E9

Год выпуска: 1998
Продолжительность: 00:27:30
Треклист:

01. I.O. (06:13)
02. Parf (06:20)
03. Torn (07:02)
04. Andar (07:55)

-----------------------

DON'T MODIFY THIS FILE

-----------------------

PERFORMER: auCDtect Task Manager, ver. 1.6.0 RC1 build 1.6.0.1
Copyright (c) 2008-2010 y-soft. All rights reserved
http://y-soft.org

ANALYZER: auCDtect: CD records authenticity detector, version 0.8.2
Copyright (c) 2004 Oleg Berngardt. All rights reserved.
Copyright (c) 2004 Alexander Djourik. All rights reserved.

FILE: 04. Andar.flac
Size: 32281424 Hash: 1D6CF54A9A31ECC323AEA130B4D60D26 Accuracy: -m0
Conclusion: CDDA 99%
Signature: 9A90836F92B426DDDA913E7D7C559A00E3C52F64
FILE: 03. Torn.flac
Size: 37495201 Hash: 250D5F23F0290E5E5B4FAC0C3CE5396A Accuracy: -m0
Conclusion: CDDA 100%
Signature: C9AC5A0DEAC36008F1862B778960CFBA291CDB37
FILE: 02. Parf.flac
Size: 36913226 Hash: B1F952EF5ABA9F18B5288263C131EC91 Accuracy: -m0
Conclusion: CDDA 100%
Signature: 2392A65CDCA9A2785AE0BCCFD960FEDB935DB621
FILE: 01. I.O..flac
Size: 32420629 Hash: A15DCA262B0AFCE711A786459BE64463 Accuracy: -m0
Conclusion: CDDA 100%
Signature: 10F1CA0E913E6F5193D2A964A32DEA526DF6EFE1

Turntable: Yamaha PX-3 Linear Tracking
Cart: Audio-Technica AT440MLa
Record Clamp: VPI HR-X Center Record Weight
Phono Preamp: Bellari VP129 Tube Phono Preamp
Line Stage: Vincent SA-31
Card: M-Audio 2496
Cables: Oehlbach NF 214 Audio cable
Record Cleaning Machine: Nitty Gritty Record Master
Год выпуска: 1998
Продолжительность: 00:23:36
Треклист:

01. Icol Diston (00:18)
02. Yua:e (08:12)
03. Icol Vern (05:02)
04. Nacrath (05:00)
05. Acval (05:04)

-----------------------

DON'T MODIFY THIS FILE

-----------------------

PERFORMER: auCDtect Task Manager, ver. 1.6.0 RC1 build 1.6.0.1
Copyright (c) 2008-2010 y-soft. All rights reserved
http://y-soft.org

ANALYZER: auCDtect: CD records authenticity detector, version 0.8.2
Copyright (c) 2004 Oleg Berngardt. All rights reserved.
Copyright (c) 2004 Alexander Djourik. All rights reserved.

FILE: 05. Acval.flac
Size: 25501655 Hash: 7BEFB22A0F36D23B4DB9891A7B069FE8 Accuracy: -m0
Conclusion: CDDA 99%
Signature: 275A4694713742E42F472008F6D9A222FC3E85C8
FILE: 04. Nacrath.flac
Size: 26763718 Hash: 04D356201193BA4F63F9304E4BBDBC33 Accuracy: -m0
Conclusion: CDDA 100%
Signature: BBDAFF9A37E8C13CAE20C4060333332CABF4A643
FILE: 03. Icol Vern.flac
Size: 23843983 Hash: 1AD26D1FC810822C7AC018A4A355DA1B Accuracy: -m0
Conclusion: CDDA 100%
Signature: CEBA37D2CE924B31CCF2FAFD1977013E0588595A
FILE: 02. Yua-e.flac
Size: 47540096 Hash: 5AD9704E36EFED16AA3B77E9F60BCF78 Accuracy: -m0
Conclusion: CDDA 99%
Signature: 090D86545EE3BE785EEF766DF394E0D092BB3151
FILE: 01. Icol Diston.flac
Size: 1381794 Hash: 69B84DF5FF105677C0A90FC1C3119BB3 Accuracy: -m0
Conclusion: CDDA 100%
Signature: B119BBB72D94F31B65104807566E48C2B4971327

Turntable: Yamaha PX-3 Linear Tracking
Cart: Audio-Technica AT440MLa
Record Clamp: VPI HR-X Center Record Weight
Phono Preamp: Bellari VP129 Tube Phono Preamp
Line Stage: Vincent SA-31
Card: M-Audio 2496
Cables: Oehlbach NF 214 Audio cable
Record Cleaning Machine: Nitty Gritty Record Master
Год выпуска: 1999
Продолжительность: 00:12:11
Треклист:

01. Occer (06:40)
02. Silicad (05:31)

-----------------------

DON'T MODIFY THIS FILE

-----------------------

PERFORMER: auCDtect Task Manager, ver. 1.6.0 RC1 build 1.6.0.1
Copyright (c) 2008-2010 y-soft. All rights reserved
http://y-soft.org

ANALYZER: auCDtect: CD records authenticity detector, version 0.8.2
Copyright (c) 2004 Oleg Berngardt. All rights reserved.
Copyright (c) 2004 Alexander Djourik. All rights reserved.

FILE: 01. Occer.flac
Size: 36559535 Hash: B33A10E4AD8585D77BAFD010DC267071 Accuracy: -m0
Conclusion: CDDA 100%
Signature: 1EA71E6CEDD69A809073BE472BAE70EF3ECCFCDF
FILE: 02. Silicad.flac
Size: 33548862 Hash: 28F261F956A51BB5619521B7B6BDF009 Accuracy: -m0
Conclusion: CDDA 100%
Signature: 4AFFAC09F817F15E58900F70CDE2D971CB6E8F71

Год выпуска: 1999
Продолжительность: 00:22:58
Треклист:

01. Plnt (06:32)
02. Thaem (05:07)
03. Leev (05:14)
04. Gersh Nal (06:05)

-----------------------

DON'T MODIFY THIS FILE

-----------------------

PERFORMER: auCDtect Task Manager, ver. 1.6.0 RC1 build 1.6.0.1
Copyright (c) 2008-2010 y-soft. All rights reserved
http://y-soft.org

ANALYZER: auCDtect: CD records authenticity detector, version 0.8.2
Copyright (c) 2004 Oleg Berngardt. All rights reserved.
Copyright (c) 2004 Alexander Djourik. All rights reserved.

FILE: 04. Gersh Nal.flac
Size: 29104280 Hash: D9A7C3CE373A221F48860509154FB849 Accuracy: -m0
Conclusion: CDDA 99%
Signature: 0E96E8634A11CDA8FF19B318BA153AF7E2EA77A3
FILE: 03. Leev.flac
Size: 32298755 Hash: 19053FE0D5ACDEFE61A0FD31D892BB94 Accuracy: -m0
Conclusion: CDDA 100%
Signature: EE0BA64A1B0AA0A152BB7BBCD689DD8EDD28B997
FILE: 02. Thaem.flac
Size: 29420441 Hash: 9AF326469EF03D257DAC38864F57259C Accuracy: -m0
Conclusion: CDDA 100%
Signature: 92FE744C548937A05FE0314FB47C21D132D3790A
FILE: 01. Plnt.flac
Size: 37845733 Hash: D83FCB6B657A2699558CD64C5A7F2949 Accuracy: -m0
Conclusion: CDDA 100%
Signature: 34DB98B283FC9C13A756C09FBB94F45BE0A98CFC

Turntable: Yamaha PX-3 Linear Tracking
Cart: Audio-Technica AT440MLa
Record Clamp: VPI HR-X Center Record Weight
Phono Preamp: Bellari VP129 Tube Phono Preamp
Line Stage: Vincent SA-31
Card: M-Audio 2496
Cables: Oehlbach NF 214 Audio cable
Record Cleaning Machine: Nitty Gritty Record Master
Год выпуска: 2000
Продолжительность: 00:12:34
Треклист:

01. Yeer (05:25)
02. Disper (07:09)

-----------------------

DON'T MODIFY THIS FILE

-----------------------

PERFORMER: auCDtect Task Manager, ver. 1.6.0 RC1 build 1.6.0.1
Copyright (c) 2008-2010 y-soft. All rights reserved
http://y-soft.org

ANALYZER: auCDtect: CD records authenticity detector, version 0.8.2
Copyright (c) 2004 Oleg Berngardt. All rights reserved.
Copyright (c) 2004 Alexander Djourik. All rights reserved.

FILE: 01. Yeer.flac
Size: 23732356 Hash: A31EBB61B526CCCAA6B0D3CB3FFADAA7 Accuracy: -m0
Conclusion: CDDA 100%
Signature: FEFC70070061CD87EE83B73BE4AFD1638E0191B3
FILE: 02. Disper.flac
Size: 39276394 Hash: 34CADB3388BBBC1A532CC1183AAD8A00 Accuracy: -m0
Conclusion: CDDA 100%
Signature: 964D3BA8661557073870FC89A62E98A751053A24

Turntable: Yamaha PX-3 Linear Tracking
Cart: Audio-Technica AT440MLa
Record Clamp: VPI HR-X Center Record Weight
Phono Preamp: Bellari VP129 Tube Phono Preamp
Line Stage: Vincent SA-31
Card: M-Audio 2496
Cables: Oehlbach NF 214 Audio cable
Record Cleaning Machine: Nitty Gritty Record Master
Год выпуска: 2013
Продолжительность: 00:25:31
Треклист:

01. Tabl-f (06:07)
02. Driad (06:37)
03. Vraiil (05:18)
04. Evlecc (03:40)
05. D ll Sabl (03:49)

-----------------------

DON'T MODIFY THIS FILE

-----------------------

PERFORMER: auCDtect Task Manager, ver. 1.5.1RC6 build 1.5.1.7
Copyright (c) 2008-2010 y-soft. All rights reserved
http://y-soft.org

ANALYZER: auCDtect: CD records authenticity detector, version 0.8.2
Copyright (c) 2004 Oleg Berngardt. All rights reserved.
Copyright (c) 2004 Alexander Djourik. All rights reserved.

FILE: 05. D ll Sabl.flac
Size: 26191535 Hash: 0681F3A526D0EE52A0B6C3284F13A70F Accuracy: -m0
Conclusion: CDDA 100%
Signature: 2108A81B1133F8C1ED5B243F1599B149E567B736
FILE: 04. Evlecc.flac
Size: 22012282 Hash: 84FDB6CD8A5731D7730823B12B486AE3 Accuracy: -m0
Conclusion: CDDA 100%
Signature: 983FCAE310CD19F02BEAB3ABE58DCE87D8C7F1B6
FILE: 03. Vraiil.flac
Size: 28933946 Hash: 9FFB082AB9A4A81BD37889AA1A4545ED Accuracy: -m0
Conclusion: CDDA 100%
Signature: 6653DC62183D203DB385054087503A436C4F5FF0
FILE: 02. Driad.flac
Size: 43901026 Hash: 9DAA7EDCD68AF957F3E24AF524B6EFAC Accuracy: -m0
Conclusion: CDDA 100%
Signature: B819CB036F8D7ABBDAAD5475642D115095B5FCC4
FILE: 01. Tabl-f.flac
Size: 28125028 Hash: 725BB310660424E355CFFCEBA032D339 Accuracy: -m0
Conclusion: CDDA 100%
Signature: 0F075332C09A05C348369992DD35AA3AFA18A1C1

Год выпуска: 2003
Продолжительность: 00:09:58
Треклист:

01. Minth (05:31)
02. Neel (04:27)

-----------------------

DON'T MODIFY THIS FILE

-----------------------

PERFORMER: auCDtect Task Manager, ver. 1.6.0 RC1 build 1.6.0.1
Copyright (c) 2008-2010 y-soft. All rights reserved
http://y-soft.org

ANALYZER: auCDtect: CD records authenticity detector, version 0.8.2
Copyright (c) 2004 Oleg Berngardt. All rights reserved.
Copyright (c) 2004 Alexander Djourik. All rights reserved.

FILE: 02. Neel.flac
Size: 30628265 Hash: 198D71E17F8E72631FFEA368F1CEF75C Accuracy: -m0
Conclusion: CDDA 100%
Signature: 5ED8CF6362473DB8A8BD8AA60BD5667181D3E7F3
FILE: 01. Minth.flac
Size: 27072732 Hash: D578025DA169650C120E52A4EC15E330 Accuracy: -m0
Conclusion: CDDA 100%
Signature: 7B5DC46502540D544FA297807CE39F2F697D8B3C

Turntable: Yamaha PX-3 Linear Tracking
Cart: Audio-Technica AT440MLa
Record Clamp: VPI HR-X Center Record Weight
Phono Preamp: Bellari VP129 Tube Phono Preamp
Line Stage: Vincent SA-31
Card: M-Audio 2496
Cables: Oehlbach NF 214 Audio cable
Record Cleaning Machine: Nitty Gritty Record Master
Год выпуска: 2015
Продолжительность: 00:10:36
Треклист:

01. Aarlenpeers (06:01)
02. Il_Eth (04:35)

-----------------------

DON'T MODIFY THIS FILE

-----------------------

PERFORMER: auCDtect Task Manager, ver. 1.5.1RC6 build 1.5.1.7
Copyright (c) 2008-2010 y-soft. All rights reserved
http://y-soft.org

ANALYZER: auCDtect: CD records authenticity detector, version 0.8.2
Copyright (c) 2004 Oleg Berngardt. All rights reserved.
Copyright (c) 2004 Alexander Djourik. All rights reserved.

FILE: 02. Il_Eth.flac
Size: 35153984 Hash: 06058588055ED89E9A279A8277857D16 Accuracy: -m0
Conclusion: CDDA 100%
Signature: F4561C52A4E53BF0FCF58827862E023C8207D0F4
FILE: 01. Aarlenpeers.flac
Size: 47396650 Hash: 2CAB2539EA96034B44E90FDB59DCC3FA Accuracy: -m0
Conclusion: CDDA 100%
Signature: 76476C3C74A9CD305483BF207CBB3B24411BCFAD

Год выпуска: 2015
Продолжительность: 00:06:55
Треклист:

01. Da_aacr (06:55)

-----------------------

DON'T MODIFY THIS FILE

-----------------------

PERFORMER: auCDtect Task Manager, ver. 1.6.0 RC1 build 1.6.0.1
Copyright (c) 2008-2010 y-soft. All rights reserved
http://y-soft.org

ANALYZER: auCDtect: CD records authenticity detector, version 0.8.2
Copyright (c) 2004 Oleg Berngardt. All rights reserved.
Copyright (c) 2004 Alexander Djourik. All rights reserved.

FILE: 01. Da_aacr.flac
Size: 40358486 Hash: FD044F87CDF0A90DC495A609624EF3E1 Accuracy: -m0
Conclusion: CDDA 100%
Signature: 86B7A60CD40CD64FCDD70A26D4227018DA69CB67

Год выпуска: 2016
Продолжительность: 00:27:47
Треклист:

01. Modul 1 (05:36)
02. Modul 9 (06:24)
03. Modul 5 (07:31)
04. Modul 3 (08:16)

-----------------------

DON'T MODIFY THIS FILE

-----------------------

PERFORMER: auCDtect Task Manager, ver. 1.6.0 RC1 build 1.6.0.1
Copyright (c) 2008-2010 y-soft. All rights reserved
http://y-soft.org

ANALYZER: auCDtect: CD records authenticity detector, version 0.8.2
Copyright (c) 2004 Oleg Berngardt. All rights reserved.
Copyright (c) 2004 Alexander Djourik. All rights reserved.

FILE: 04. Modul 3.flac
Size: 44581885 Hash: 10AFFD251A044E282CD90BF582E7FACF Accuracy: -m0
Conclusion: CDDA 100%
Signature: 3C58D0177B549B65B7B1455AEE4AD0F3F052C35F
FILE: 03. Modul 5.flac
Size: 37158829 Hash: D541B204BE10DA9C03725767E7CD6BD3 Accuracy: -m0
Conclusion: CDDA 100%
Signature: 04D833956E8A406DFB83D2DC92AE0158A4FEBC44
FILE: 02. Modul 9.flac
Size: 39159202 Hash: 32A47FD8ADF8FE6B7B521EE95D5A07E4 Accuracy: -m0
Conclusion: CDDA 100%
Signature: 245FF78C28E5CFFF84A4DC525EA02AF7813B57DF
FILE: 01. Modul 1.flac
Size: 31621860 Hash: 7FE0E2215829AC9B8B04B36437FDA643 Accuracy: -m0
Conclusion: CDDA 100%
Signature: 3EC8F55950D7D70754C520876F8C761F70BDB119

Год выпуска: 2002
Продолжительность: 01:13:59
Треклист:

01. I.O. (06:15)
02. Parf (06:15)
03. Torn (06:58)
04. Andar (07:44)
05. Icol Diston (00:20)
06. Yua:e (08:11)
07. Icol Vern (05:03)
08. Nacrath (05:00)
09. Acval (05:06)
10. Dynamo - Außen Vor Amx (09:21)
11. Torsten Pröfrock - No.8 Amx (13:46)

Exact Audio Copy V0.99 prebeta 4 from 23. January 2008

EAC extraction logfile from 12. April 2009, 18:24

Arovane / Icol Diston

Used drive : TSSTcorpCDDVDW SH-S202J Adapter: 0 ID: 0

Read mode : Secure
Utilize accurate stream : Yes
Defeat audio cache : No
Make use of C2 pointers : No

Read offset correction : 6
Overread into Lead-In and Lead-Out : No
Fill up missing offset samples with silence : Yes
Delete leading and trailing silent blocks : No
Null samples used in CRC calculations : Yes
Used interface : Native Win32 interface for Win NT & 2000
Gap handling : Appended to previous track

Used output format : User Defined Encoder
Selected bitrate : 320 kBit/s
Quality : High
Add ID3 tag : No
Command line compressor : C:\Program Files\FLAC\flac.exe
Additional command line options : -V -8 -T "artist=%a" -T "title=%t" -T "album=%g" -T "date=%y" -T "tracknumber=%n" -T "genre=%m" %s

TOC of the extracted CD

Track | Start | Length | Start sector | End sector
---------------------------------------------------------
1 | 0:00.00 | 6:14.42 | 0 | 28091
2 | 6:14.42 | 6:14.55 | 28092 | 56196
3 | 12:29.22 | 6:57.51 | 56197 | 87522
4 | 19:26.73 | 7:44.12 | 87523 | 122334
5 | 27:11.10 | 0:19.74 | 122335 | 123833
6 | 27:31.09 | 8:11.11 | 123834 | 160669
7 | 35:42.20 | 5:03.27 | 160670 | 183421
8 | 40:45.47 | 4:59.48 | 183422 | 205894
9 | 45:45.20 | 5:06.20 | 205895 | 228864
10 | 50:51.40 | 9:20.70 | 228865 | 270934
11 | 60:12.35 | 13:45.41 | 270935 | 332850

Track 1

Filename I:\FLAC\Upload\Arovane - (2002) Icol Diston\Arovane - Icol Diston - 01 - I.O..wav

Pre-gap length 0:00:02.00

Peak level 98.3 %
Track quality 99.9 %
Test CRC AB4EFEFE
Copy CRC AB4EFEFE
Accurately ripped (confidence 9) [ED694026]
Copy OK

Track 2

Filename I:\FLAC\Upload\Arovane - (2002) Icol Diston\Arovane - Icol Diston - 02 - Parf.wav

Pre-gap length 0:00:02.37

Peak level 99.2 %
Track quality 100.0 %
Test CRC E0A534AC
Copy CRC E0A534AC
Accurately ripped (confidence 9) [3BA22257]
Copy OK

Track 3

Filename I:\FLAC\Upload\Arovane - (2002) Icol Diston\Arovane - Icol Diston - 03 - Torn.wav

Peak level 99.5 %
Track quality 100.0 %
Test CRC EDF4C525
Copy CRC EDF4C525
Accurately ripped (confidence 9) [5A7D4B20]
Copy OK

Track 4

Filename I:\FLAC\Upload\Arovane - (2002) Icol Diston\Arovane - Icol Diston - 04 - Andar.wav

Peak level 91.0 %
Track quality 100.0 %
Test CRC A5A7276D
Copy CRC A5A7276D
Accurately ripped (confidence 9) [CCD51A4F]
Copy OK

Track 5

Filename I:\FLAC\Upload\Arovane - (2002) Icol Diston\Arovane - Icol Diston - 05 - Icol Diston.wav

Pre-gap length 0:00:02.21

Peak level 97.0 %
Track quality 100.0 %
Test CRC AC6CB8CD
Copy CRC AC6CB8CD
Accurately ripped (confidence 10) [44485DC6]
Copy OK

Track 6

Filename I:\FLAC\Upload\Arovane - (2002) Icol Diston\Arovane - Icol Diston - 06 - Yua-E.wav

Pre-gap length 0:00:01.68

Peak level 99.8 %
Track quality 100.0 %
Test CRC 2D62C172
Copy CRC 2D62C172
Accurately ripped (confidence 9) [2FF5C53E]
Copy OK

Track 7

Filename I:\FLAC\Upload\Arovane - (2002) Icol Diston\Arovane - Icol Diston - 07 - Icol Vern.wav

Pre-gap length 0:00:02.08

Peak level 99.7 %
Track quality 100.0 %
Test CRC 94B9D907
Copy CRC 94B9D907
Accurately ripped (confidence 9) [C1556440]
Copy OK

Track 8

Filename I:\FLAC\Upload\Arovane - (2002) Icol Diston\Arovane - Icol Diston - 08 - Nacrath.wav

Pre-gap length 0:00:03.27

Peak level 100.0 %
Track quality 100.0 %
Test CRC DEC65A02
Copy CRC DEC65A02
Accurately ripped (confidence 9) [8CAF310D]
Copy OK

Track 9

Filename I:\FLAC\Upload\Arovane - (2002) Icol Diston\Arovane - Icol Diston - 09 - Acval.wav

Peak level 99.6 %
Track quality 100.0 %
Test CRC 50209D28
Copy CRC 50209D28
Accurately ripped (confidence 9) [8F9A4443]
Copy OK

Track 10

Filename I:\FLAC\Upload\Arovane - (2002) Icol Diston\Arovane - Icol Diston - 10 - Aussen Vor Amx.wav

Pre-gap length 0:00:02.12

Peak level 99.6 %
Track quality 100.0 %
Test CRC 8BDA5CE5
Copy CRC 8BDA5CE5
Accurately ripped (confidence 9) [764A4580]
Copy OK

Track 11

Filename I:\FLAC\Upload\Arovane - (2002) Icol Diston\Arovane - Icol Diston - 11 - No.8 Amx.wav

Pre-gap length 0:00:00.10

Peak level 99.2 %
Track quality 100.0 %
Test CRC E295EB51
Copy CRC E295EB51
Accurately ripped (confidence 9) [5BFF1E6F]
Copy OK

All tracks accurately ripped

No errors occurred

End of status report


REM GENRE Electronic
REM DATE 2002
REM DISCID 9411560B
REM COMMENT "ExactAudioCopy v0.99pb4"
PERFORMER "Arovane"
TITLE "Icol Diston"
FILE "01 - I.O..wav" WAVE
TRACK 01 AUDIO
TITLE "I.O."
PERFORMER "Arovane"
FLAGS DCP
INDEX 01 00:00:00
TRACK 02 AUDIO
TITLE "Parf"
PERFORMER "Arovane"
FLAGS DCP
INDEX 00 06:12:05
FILE "02 - Parf.wav" WAVE
INDEX 01 00:00:00
FILE "03 - Torn.wav" WAVE
TRACK 03 AUDIO
TITLE "Torn"
PERFORMER "Arovane"
FLAGS DCP
INDEX 01 00:00:00
FILE "04 - Andar.wav" WAVE
TRACK 04 AUDIO
TITLE "Andar"
PERFORMER "Arovane"
FLAGS DCP
INDEX 01 00:00:00
TRACK 05 AUDIO
TITLE "Icol Diston"
PERFORMER "Arovane"
FLAGS DCP
INDEX 00 07:41:66
FILE "05 - Icol Diston.wav" WAVE
INDEX 01 00:00:00
TRACK 06 AUDIO
TITLE "Yua:e"
PERFORMER "Arovane"
FLAGS DCP
INDEX 00 00:18:06
FILE "06 - Yua-e.wav" WAVE
INDEX 01 00:00:00
TRACK 07 AUDIO
TITLE "Icol Vern"
PERFORMER "Arovane"
FLAGS DCP
INDEX 00 08:09:03
FILE "07 - Icol Vern.wav" WAVE
INDEX 01 00:00:00
TRACK 08 AUDIO
TITLE "Nacrath"
PERFORMER "Arovane"
FLAGS DCP
INDEX 00 05:00:00
FILE "08 - Nacrath.wav" WAVE
INDEX 01 00:00:00
FILE "09 - Acval.wav" WAVE
TRACK 09 AUDIO
TITLE "Acval"
PERFORMER "Arovane"
FLAGS DCP
INDEX 01 00:00:00
TRACK 10 AUDIO
TITLE "Aussen Vor Amx"
PERFORMER "Arovane"
FLAGS DCP
INDEX 00 05:04:08
FILE "10 - Aussen Vor Amx.wav" WAVE
INDEX 01 00:00:00
TRACK 11 AUDIO
TITLE "No.8 Amx"
PERFORMER "Arovane"
FLAGS DCP
INDEX 00 09:20:60
FILE "11 - No.8 Amx.wav" WAVE
INDEX 01 00:00:00

Время раздачи: 12/7
[NNM-Club.name]_Arovane FLAC.torrent
 Торрент: Золотая раздача  Зарегистрирован
 
Примагнититься
Free Leech
Зарегистрируйтесь и скачайте торрент!
59,1 KB
 Зарегистрирован:   21 Июн 2017 21:04:09
 Размер:   6,13 GB  (
 Рейтинг:    (Голосов: 9)
 Поблагодарили:   33
 Проверка:   Оформление проверено модератором 21 Июн 2017 21:04:42
Как cкачать  ·  Как раздать  ·  Правильно оформить  ·  Поднять ратио!  
Загрузка...
vilator ®
Модератор Музыки
RG Music
 
Стаж: 8 лет 2 мес.
Сообщений: 5873
Ratio: 138,754
Поблагодарили: 116733
100%
Откуда: Minsk
pirates.png
Обновление, добавлены:
2015 Radius EP (WEB)
2017 Radius 2 EP (WEB)
2017 Organism (Arovane & Porya Hatami) (WEB)
vilator ®
Модератор Музыки
RG Music
 
Стаж: 8 лет 2 мес.
Сообщений: 5873
Ratio: 138,754
Поблагодарили: 116733
100%
Откуда: Minsk
pirates.png
Обновление:
2017 Modul 2 EP (WEB)
Показать сообщения:   
Начать новую тему   Ответить на тему    Торрент-трекер NNM-Club -> Electronic -> IDM (Lossless) Часовой пояс: GMT + 3
Страница 1 из 1