Интеллигентный торрент-трекер
canvas not supported
Нас вместе: 4 345 214

Mitch Kashmar - West Coast Toast (2016) [FLAC|Lossless|image + .cue] <Harmonica Blues>


 
 
RSS
Начать новую тему   Ответить на тему    Торрент-трекер NNM-Club -> Jazz, Blues, Soul -> Blues, Soul (Lossless)
Автор Сообщение
Svetojar ®
RG Music
 
Стаж: 6 мес. 7 дней
Сообщений: 690
Ratio: 202,111
Поблагодарили: 29122
100%
Mitch Kashmar - West Coast Toast (2016)
Год: 2016
Жанр: Harmonica Blues
Издание: Delta Groove Music - DGPCD174
Продолжительность: 00:48:37

Кодек: FLAC
Битрейт: Lossless
Тип рипа: image + .cue

Треклист:
01. East Of 82nd Street (03:05)
02. Too Many Cooks (03:32)
03. Young Girl (04:49)
04. The Petroleum Blues (04:47)
05. Mood Indica (05:44)
06. Don't Stay Out All Night (03:38)
07. My Lil' Stumptown Shack (02:54)
08. Makin' Bacon (04:29)
09. Alcohol Blues (04:23)
10. Love Grows Cold (03:31)
11. Canoodlin' (07:41)
foobar2000 1.3.14 / Замер динамического диапазона (DR) 1.1.1
Дата отчёта: 2017-01-17 17:51:07

--------------------------------------------------------------------------------
Анализ: Mitch Kashmar / West Coast Toast
--------------------------------------------------------------------------------

DR Пики RMS Продолжительность трека
--------------------------------------------------------------------------------
DR8 -0.10 дБ -9.83 дБ 3:06 01-East of 82nd Street
DR9 -0.05 дБ -10.86 дБ 3:32 02-Too Many Cooks
DR10 -0.10 дБ -12.09 дБ 4:50 03-Young Girl
DR8 -0.10 дБ -9.80 дБ 4:47 04-The Petroleum Blues
DR8 -0.10 дБ -10.01 дБ 5:44 05-Mood Indica
DR7 0.00 дБ -8.70 дБ 3:38 06-Don't Stay Out All Night
DR8 -0.10 дБ -9.85 дБ 2:54 07-My Lil' Stumptown Shack
DR9 -0.10 дБ -10.29 дБ 4:29 08-Makin' Bacon
DR10 -0.10 дБ -11.92 дБ 4:23 09-Alcohol Blues
DR10 0.00 дБ -11.43 дБ 3:31 10-Love Grows Cold
DR10 -0.10 дБ -12.88 дБ 7:41 11-Canoodlin'
--------------------------------------------------------------------------------

Количество треков: 11
Реальные значения DR: DR9

Частота: 44100 Гц
Каналов: 2
Разрядность: 16
Битрейт: 905 кбит/с
Кодек: FLAC
================================================================================
YouTube




Поглощение/вытеснение
Только с согласия релизера

gvm55

Время раздачи: По мере возможности (до появления первых 3-5 скачавших)
[NNMClub.to]_Mitch Kashmar - West Coast Toast.torrent
 Торрент:   Зарегистрирован
 
Примагнититься
Free Leech
Зарегистрируйтесь и скачайте торрент!
13,9 KB
 Зарегистрирован:   17 Янв 2017 16:11:38
 Размер:   320 MB  (
 Рейтинг:    (Голосов: 6)
 Поблагодарили:   58
 Проверка:   Оформление проверено модератором 17 Янв 2017 17:43:37
Как cкачать  ·  Как раздать  ·  Правильно оформить  ·  Поднять ратио!  
Загрузка...
Показать сообщения:   
Начать новую тему   Ответить на тему    Торрент-трекер NNM-Club -> Jazz, Blues, Soul -> Blues, Soul (Lossless) Часовой пояс: GMT + 3
Страница 1 из 1