Интеллигентный торрент-трекер
canvas not supported
Нас вместе: 4 346 503

The Brew - Shake the Tree (2016) [FLAC|Lossless|tracks + .cue] <Hard Rock, Classic Rock, Blues Rock>


 
 
RSS
Начать новую тему   Ответить на тему    Торрент-трекер NNM-Club -> Rock, Alternative, Punk, Metal -> Hard Rock (Lossless)
Автор Сообщение
Svetojar ®
RG Music
 
Стаж: 6 мес. 9 дней
Сообщений: 690
Ratio: 202,111
Поблагодарили: 29131
100%
The Brew - Shake the Tree (2016)
Год: 2016
Жанр: Hard Rock, Classic Rock, Blues Rock
Продолжительность: 00:36:45

Кодек: FLAC
Битрейт: Lossless
Тип рипа: tracks + .cue

Треклист:
01. Johnny Moore (3:25)
02. Knife Edge (4:05)
03. Shake The Tree (3:45)
04. Black Hole Soul (3:38)
05. Without You (4:57)
06. Rock'n'Roll Dealer (3:01)
07. Name On A Bullet (3:27)
08. Small Town Faces (3:07)
09. Ambassador To The Lonely (3:00)
10. My Juliet (4:20)
foobar2000 1.3.14 / Замер динамического диапазона (DR) 1.1.1
Дата отчёта: 2017-01-17 19:03:48

--------------------------------------------------------------------------------
Анализ: The Brew / Shake The Tree
--------------------------------------------------------------------------------

DR Пики RMS Продолжительность трека
--------------------------------------------------------------------------------
DR6 -0.10 дБ -7.26 дБ 3:25 01-Johnny Moore
DR7 -0.10 дБ -8.08 дБ 4:05 02-Knife Edge
DR6 -0.10 дБ -7.68 дБ 3:45 03-Shake The Tree
DR7 -0.10 дБ -8.02 дБ 3:38 04-Black Hole Soul
DR8 -0.10 дБ -10.37 дБ 4:57 05-Without You
DR9 -0.10 дБ -9.52 дБ 3:01 06-Rock'n'roll Dealer
DR8 -0.10 дБ -9.56 дБ 3:27 07-Name On A Bullet
DR7 -0.10 дБ -8.39 дБ 3:07 08-Small Town Faces
DR7 -0.10 дБ -8.36 дБ 3:00 09-Ambassador To The Lonely
DR8 -0.10 дБ -8.85 дБ 4:20 10-My Juliet
--------------------------------------------------------------------------------

Количество треков: 10
Реальные значения DR: DR7

Частота: 44100 Гц
Каналов: 2
Разрядность: 16
Битрейт: 1081 кбит/с
Кодек: FLAC
================================================================================
YouTube
Время раздачи: По мере возможности (до появления первых 3-5 скачавших)


Поглощение/вытеснение
Только с согласия релизера

Bigbeer
[NNMClub.to]_The Brew - 2016 - Shake The Tree.torrent
 Торрент:   Зарегистрирован
 
Примагнититься
Free Leech
Зарегистрируйтесь и скачайте торрент!
12,4 KB
 Зарегистрирован:   17 Янв 2017 17:21:17
 Размер:   277 MB  (
 Рейтинг:    (Голосов: 5)
 Поблагодарили:   51
 Проверка:   Оформление проверено модератором 19 Янв 2017 07:06:09
Как cкачать  ·  Как раздать  ·  Правильно оформить  ·  Поднять ратио!  
Загрузка...
Bigbeer
Модератор Музыки
RG Music
 
Стаж: 7 лет 8 мес.
Сообщений: 3051
Ratio: 160,526
Поблагодарили: 48666
100%
pirates.png
Svetojar писал(а): Перейти к сообщению

FILE: 08 Small Town Faces.flac
Size: 24690427 Hash: 2289595432060BD1539E77BC9BA2DCD4 Accuracy: -m0
Conclusion: MPEG 95%

Нужна спектрограмма только этого флака, остальные не обязательны.

_________________
Исправили релиз напишите мне в ЛС со ссылкой на него.
Показать сообщения:   
Начать новую тему   Ответить на тему    Торрент-трекер NNM-Club -> Rock, Alternative, Punk, Metal -> Hard Rock (Lossless) Часовой пояс: GMT + 3
Страница 1 из 1