Интеллигентный торрент-трекер
canvas not supported
Нас вместе: 4 348 085

Ronnie Baker Brooks - Times Have Changed (2017) [FLAC|Lossless|image + .cue] <Blues Rock, Electric Blues>


 
 
RSS
Начать новую тему   Ответить на тему    Торрент-трекер NNM-Club -> Jazz, Blues, Soul -> Blues, Soul (Lossless)
Автор Сообщение
Svetojar ®
RG Music
 
Стаж: 5 мес. 10 дней
Сообщений: 682
Ratio: 200,698
Поблагодарили: 28412
100%
Ronnie Baker Brooks - Times Have Changed (2017)
Год: 2017
Жанр: Blues Rock, Electric Blues
Издание: Provogue - PRD 7509 2
Продолжительность: 00:55:06

Кодек: FLAC
Битрейт: Lossless
Тип рипа: image + .cue

Треклист:
01. Show Me (Feat. Steve Cropper) (3:59)
02. Doing Too Much (Feat. 'Big Head' Todd Mohr) (4:18)
03. Twine Time (Feat. Lonnie Brooks) (4:15)
04. Times Have Changed (Feat. Al Kapone) (5:18)
05. Long Story Short (5:52)
06. Give Me Your Love (Love Song) (Feat. Angie Stone) (8:04)
07. Give The Baby Anything The Baby Wants (Feat. 'Big Head' Todd Mohr & Eddie Willis) (5:36)
08. Old Love (Feat. Bobby ‘Blue’ Bland) (4:37)
09. Come On Up (Feat. Felix Cavaliere & Lee Roy Parnell) (3:53)
10. Wham Bam Thank You Sam (4:07)
11. When I Was We (5:04)
foobar2000 1.3.14 / Dynamic Range Meter 1.1.1
log date: 2017-01-21 09:12:43

--------------------------------------------------------------------------------
Analyzed: Ronnie Baker Brooks / Times Have Changed
--------------------------------------------------------------------------------

DR Peak RMS Duration Track
--------------------------------------------------------------------------------
DR7 -0.23 dB -8.41 dB 3:59 01-Show Me (Feat. Steve Cropper)
DR7 -0.02 dB -8.99 dB 4:18 02-Doing Too Much (Feat. 'Big Head' Todd Mohr)
DR6 -0.70 dB -8.57 dB 4:15 03-Twine Time (Feat. Lonnie Brooks)
DR8 -0.20 dB -9.44 dB 5:18 04-Times Have Changed (Feat. Al Kapone)
DR6 -0.02 dB -7.56 dB 5:53 05-Long Story Short
DR7 -0.19 dB -8.28 dB 8:04 06-Give Me Your Love (Love Song) (Feat. Angie Stone)
DR7 -0.02 dB -8.66 dB 5:36 07-Give The Baby Anything The Baby Wants (Feat. 'Big Head' Todd Mohr & Eddie Wil...
DR8 -0.24 dB -9.34 dB 4:37 08-Old Love (Feat. Bobby ‘Blue’ Bland)
DR6 -0.17 dB -8.06 dB 3:54 09-Come On Up (Feat. Felix Cavaliere & Lee Roy Parnell)
DR7 -0.01 dB -8.66 dB 4:07 10-Wham Bam Thank You Sam
DR7 -0.24 dB -8.93 dB 5:05 11-When I Was We
--------------------------------------------------------------------------------

Number of tracks: 11
Official DR value: DR7

Samplerate: 44100 Hz
Channels: 2
Bits per sample: 16
Bitrate: 883 kbps
Codec: FLAC
================================================================================
Время раздачи: По мере возможности (до появления первых 3-5 скачавших)


Поглощение/вытеснение
Только с согласия релизера

Beijing65
[NNMClub.to]_Ronnie Baker Brooks - Times Have Changed (2017).torrent
 Торрент: Платиновая раздача  Зарегистрирован
 
Примагнититься

Скачать
 Зарегистрирован:   21 Янв 2017 07:29:24
 Размер:   455 MB  (
 Рейтинг:    (Голосов: 7)
 Поблагодарили:   84
 Проверка:   Оформление проверено модератором 21 Янв 2017 12:40:00
Как cкачать  ·  Как раздать  ·  Правильно оформить  ·  Поднять ратио!  
Загрузка...
avrora7
RG Music
 
Стаж: 2 года 5 мес.
Сообщений: 4133
Ratio: 72,587
Поблагодарили: 49363
100%
cod4.gif
Спс. =)

_________________
Улыбайтесь, господа. Улыбайтесь! (Мюнхга́узен).
IGOR047
Стаж: 7 лет 5 мес.
Сообщений: 126
Ratio: 23,053
72.87%
russia.gif
Спасибо! Очень понравился альбом, крутой блюз!
Svetojar ®
RG Music
 
Стаж: 5 мес. 10 дней
Сообщений: 682
Ratio: 200,698
Поблагодарили: 28412
100%
IGOR047
Согласен! Очень душевно!)))

_________________
Я человек ленивый, поэтому все делаю быстро и качественно. Чтобы быстрее освободиться и не переделывать.
Показать сообщения:   
Начать новую тему   Ответить на тему    Торрент-трекер NNM-Club -> Jazz, Blues, Soul -> Blues, Soul (Lossless) Часовой пояс: GMT + 3
Страница 1 из 1